<?xml version="1.0" standalone="no"?>
<!DOCTYPE svg PUBLIC "-//W3C//DTD SVG 1.1//EN" "http://www.w3.org/Graphics/SVG/1.1/DTD/svg11.dtd" >
<svg xmlns="http://www.w3.org/2000/svg">
<metadata>Generated by IcoMoon</metadata>
<defs>
<font id="a1_iconfont" horiz-adv-x="1024">
<font-face units-per-em="1024" ascent="960" descent="-64" />
<missing-glyph horiz-adv-x="1024" />
<glyph unicode="&#x20;" horiz-adv-x="512" d="" />
<glyph unicode="&#xe600;" glyph-name="icon_a1_alert" d="M424.772 879.582v-455.908l40.018-190.132h94.374l40.064 190.132v455.908zM445.918 148.584h132.166v-132.166h-132.166v132.166z" />
<glyph unicode="&#xe601;" glyph-name="icon_a1_arrowball-down" d="M943 448c0 238.034-192.966 431-431 431s-431-192.966-431-431 192.966-431 431-431 431 192.966 431 431zM507.062 282.282l-220.318 220.752 73.988 74.268 152.398-152.678 152.882 153.166 73.988-74.294-226.87-227.286-6.050 6.088-0.018-0.016z" />
<glyph unicode="&#xe602;" glyph-name="icon_a1_arrowball-left" d="M512 17c238.034 0 431 192.966 431 431s-192.966 431-431 431-431-192.966-431-431 192.966-431 431-431zM346.282 452.938l220.752 220.318 74.268-73.988-152.678-152.398 153.166-152.882-74.294-73.988-227.286 226.87 6.088 6.050-0.016 0.018z" />
<glyph unicode="&#xe603;" glyph-name="icon_a1_arrowball-right" d="M512 879c-238.034 0-431-192.966-431-431s192.966-431 431-431 431 192.966 431 431-192.966 431-431 431zM677.718 443.062l-220.752-220.318-74.268 73.988 152.678 152.398-153.166 152.882 74.294 73.988 227.286-226.87-6.088-6.050 0.016-0.018z" />
<glyph unicode="&#xe604;" glyph-name="icon_a1_arrowball-up" d="M81 448c0-238.034 192.966-431 431-431s431 192.966 431 431-192.966 431-431 431-431-192.966-431-431zM516.938 613.718l220.318-220.752-73.988-74.268-152.398 152.678-152.882-153.166-73.988 74.294 226.87 227.286 6.050-6.088 0.018 0.016z" />
<glyph unicode="&#xe605;" glyph-name="icon_a1_arrow-down" d="M171.334 565.344l345.298-345.966 346.034 346.67-112.852 113.318-233.182-233.62-232.446 232.876z" />
<glyph unicode="&#xe606;" glyph-name="icon_a1_arrow-left" d="M632.97 795.040l-345.964-345.298 346.67-346.036 113.318 112.852-233.62 233.184 232.874 232.446z" />
<glyph unicode="&#xe607;" glyph-name="icon_a1_arrow-right" d="M401.030 103.706l345.964 345.298-346.67 346.036-113.318-112.852 233.62-233.184-232.874-232.446z" />
<glyph unicode="&#xe608;" glyph-name="icon_a1_arrow-up" d="M862.666 333.402l-345.298 345.964-346.034-346.67 112.85-113.318 233.184 233.62 232.446-232.874z" />
<glyph unicode="&#xe609;" glyph-name="icon_a1_basket" d="M358.058 678.986v184.796h-277.222v-92.404h184.784v-296.804l68.308-195.956 609.236 195.956v204.412zM388.764 217.022c-50.942 0-92.302-41.394-92.302-92.446 0-50.942 41.36-92.36 92.302-92.36 51.032 0 92.482 41.418 92.482 92.36 0.002 51.052-41.45 92.446-92.482 92.446zM789.222 217.022c-51.078 0-92.484-41.394-92.484-92.446 0-50.942 41.406-92.36 92.484-92.36 51.030 0 92.348 41.418 92.348 92.36 0 51.052-41.318 92.446-92.348 92.446z" />
<glyph unicode="&#xe60a;" glyph-name="icon_a1_bell" d="M766.68 271.524c-50.304 88.584-20.914 137.792-40.84 301.816-17.594 147.080-128.368 189.124-184.87 201.080v105.58h-57.74v-105.58c-56.7-11.954-167.424-54-185.068-201.080-19.926-164.026 9.514-213.232-40.84-301.816-13.382-23.368-30.234-42.292-45.698-56.768v-34.138h600.75v34.138c-15.46 14.476-32.308 33.4-45.694 56.768v0zM582.358 86.254c0-38.832-31.324-70.254-70.282-70.254-38.906 0-70.43 31.422-70.43 70.254 0 38.782 31.522 70.204 70.43 70.204 38.96 0.002 70.282-31.422 70.282-70.204v0z" />
<glyph unicode="&#xe60b;" glyph-name="icon_a1_bullet" d="M512 879c238.036 0 431-192.964 431-431s-192.964-431-431-431-431 192.964-431 431 192.964 431 431 431z" />
<glyph unicode="&#xe60c;" glyph-name="icon_a1_burger" d="M81.202 735.194h861.598v-114.882h-861.598v114.882zM81.202 505.438h861.598v-114.874h-861.598v114.874zM81.202 275.68h861.598v-114.874h-861.598v114.874z" />
<glyph unicode="&#xe60d;" glyph-name="icon_a1_calendar" d="M820.986 779.964c0.048-1.508 0.094-3.014 0.094-4.536 0-64.294-42.644-116.412-95.246-116.412s-95.246 52.12-95.246 116.412c0 1.522 0.046 3.028 0.094 4.536h-234.528c0.048-1.508 0.094-3.014 0.094-4.536 0-64.294-42.644-116.412-95.246-116.412s-95.246 52.12-95.246 116.412c0 1.522 0.046 3.028 0.094 4.536h-120.558v-764.092h853.414v764.092h-117.72zM870.97 79.974h-727.2v486.818h727.202v-486.818zM352.404 792.25c0-48.534-24.775-87.878-55.336-87.878s-55.336 39.344-55.336 87.878c0 48.534 24.775 87.878 55.336 87.878s55.336-39.344 55.336-87.878zM782.414 792.25c0-48.534-24.775-87.878-55.336-87.878s-55.336 39.344-55.336 87.878c0 48.534 24.775 87.878 55.336 87.878s55.336-39.344 55.336-87.878zM388.316 205.57v225.552l-57.464-24.43-9.382 25.604 72.318 32.054h28.536v-258.778h57.854v-29.512h-151.672v29.512h59.81zM654.324 176.058v66.258h-122.546v30.686l82.674 191.348h35.964l-84.434-193.496h88.344v106.716h32.642v-106.716h41.044v-28.538h-41.044v-66.258h-32.644z" />
<glyph unicode="&#xe60e;" glyph-name="icon_a1_calendar-checked" d="M650.6 879.772h99.576v-171.566h-99.576v171.566zM273.83 879.772h99.576v-171.566h-99.576v171.566zM782.47 772.462v-96.546h-164.166v96.546h-212.608v-96.546h-164.166v96.546h-107.648v-756.234h756.234v756.234h-107.646zM593.172 324.838l-162.336-163.898-135.282 136.562 54.108 54.658 81.178-81.968 243.506 245.864 54.108-54.644-135.282-136.574z" />
<glyph unicode="&#xe60f;" glyph-name="icon_a1_chat" d="M80.4 182.528h128.556v-139.154l168.354 139.154h276.21v447.658h-573.12zM370.48 852.624v-170.832h339.364v-329.024l105.196-86.954v139.158h128.56v447.652z" />
<glyph unicode="&#xe610;" glyph-name="icon_a1_checkmark" d="M889.186 745.37l-53.654 53.96-485.132-486.41-161.932 162.238-53.654-54.318-53.96-53.96 269.546-270.21 53.654 53.96 539.092 540.37-53.96 54.37z" />
<glyph unicode="&#xe611;" glyph-name="icon_a1_child-protection" d="M836 231.154v304.216h-74.77v101.73c0 134.182-110.446 242.9-248.242 242.9h-4.162c-137.798 0-251.042-108.718-251.042-242.902v-101.73h-69.784v-304.216zM188 231.154l67.5-215.154h513l67.5 215.154zM362.46 637.096c0 79.414 64.81 140.97 146.366 140.97h4.162c81.554 0 148.55-61.554 148.55-140.97v-101.73h-299.074v101.73h-0.004zM364.32 403.792c8.94 7.574 25.4 17.912 38.076 17.912 10.662 0 46.72-2.66 54.912-8.192 13.696-9.238 7.466-25.454 7.466-43.204 0-28.488-23.010-51.476-51.422-51.476-28.434 0-51.448 22.984-51.394 51.476 0 15.762-8.808 24.062 2.362 33.484zM679.504 227.162l-37.124 49.724-2.1-26.49 38.866-75.798h-39.446v-65.938h6.658v-7.708h-30.386v73.646h-11.408v-73.646h-30.416v7.708h6.686v65.938h-50.854l44.088 75.798-2.734 21.546-47.428-54.338-9.532 2.35-17.128-4.252-41.904 43.092v-85.138h-12.76v-65.938h6.628v-7.736h-30.386v73.674h-11.408v-73.674h-30.442v7.736h6.686v65.938h-10.524v86.738l-52.404-44.75-19.888 4.944 4.53 10.828 73.258 80.386h69.944l61.49-75.58 63.534 76.544 71.682 0.026 58.866-79.556-24.644-6.074zM667.608 319.35c1.718 16.044-5.242 30.99-9.382 38.292-5.424-22.382-25.498-39.068-49.484-39.068-25.336 0-46.234 18.586-50.216 42.802-4.304-4.486-15.494-18.61-12.91-42.022-27.030 0.732-31.884 45.66 12.406 53.352 0.254 4.164 1.006 8.17 2.22 12.014 1.762 15.586 9.2 41.198 43.214 41.998 39.436 0.938 53.214-30.328 54.956-45.684 0.526-2.38 0.78-4.874 0.986-7.37 29.816-5.308 50.782-53.946 8.21-54.314z" />
<glyph unicode="&#xe612;" glyph-name="icon_a1_close" d="M512.198 550.944l-255.546 255.542-102.222-102.224 255.542-255.544-255.614-255.612 102.226-102.224 255.614 255.612 255.646-255.648 102.226 102.226-255.65 255.646 255.614 255.614-102.222 102.224z" />
<glyph unicode="&#xe613;" glyph-name="icon_a1_community" d="M80 880v-648h216v-216l270 216h378v648h-864zM545.186 347.108h-66.080v65.528h66.080v-65.528zM644.596 587.286l-77.484-76.498h-21.638v-34.064h-66.080v99.302h60.524l38.596 38.104v53.984l-38.596 38.104h-54.674l-38.886-38.104v-27.134h-66.372v53.984l77.484 76.498h109.938l77.484-76.498-0.296-107.678z" />
<glyph unicode="&#xe614;" glyph-name="icon_a1_contact" d="M521.26 652.458v162.064l29.18 30.858c-4.82 12.878-10.658 24.686-16.744 35.418h-162.12c-24.862-43.198-40.848-105.988-40.848-176.018 0-79.422 20.296-149.72 51.502-192.384h140.81c24.1 33.004 41.606 82.374 48.458 140.062h-50.238zM699.616 287.544h-63.426v153.212h-421.156l-82.2-426.090h639.85l-52.518 272.878zM801.102 881.334h-127.11l-90.066-95.252v-67.080h76.874v33.54l44.906 47.49h63.68l44.908-47.49v-67.35l-44.908-47.49h-70.278v-123.158h76.876v41.858h25.118l90.064 95.252v134.428zM699.108 434.584h76.872v-81.3h-76.872v81.3z" />
<glyph unicode="&#xe615;" glyph-name="icon_a1_delete" d="M841.998 759.030l-212.106 51.122v70.41h-235.742v-70.41l-212.148-51.122v-59.030h659.996zM810.952 578.964v79.31h-597.902v-80.014l58.158-562.822h481.542l58.202 563.526zM389.142 78.212h-43.756l-48.886 492.844h92.642v-492.844zM547.89 78.212h-71.82v492.844h71.82v-492.844zM634.86 78.212v492.844h92.684l-49.012-492.844h-43.672z" />
<glyph unicode="&#xe616;" glyph-name="icon_a1_delivery" d="M745.536 663.302h-109.030v35.884c0 21.952-17.96 39.914-39.914 39.914h-476.48c-21.952 0-39.914-17.96-39.914-39.914v-273.936h863.602v41.772l-198.264 196.28zM861.454 484.368h-174.028v134.838h46.762l127.266-122.882v-11.956zM80.198 395.36v-106.276c0-13.152 10.76-23.912 23.912-23.912h69.602c9.796 55.796 58.462 98.206 117.066 98.206s107.27-42.41 117.066-98.206h218.21c9.796 55.796 58.462 98.206 117.066 98.206s107.27-42.41 117.066-98.206h59.702c13.152 0 23.912 10.76 23.912 23.912v106.276h-863.602zM290.878 156.9c-48.712 0-88.342 39.63-88.342 88.344 0 48.712 39.63 88.342 88.342 88.342s88.344-39.63 88.344-88.342c0-48.714-39.632-88.344-88.344-88.344zM290.878 293.732c-26.736 0-48.488-21.752-48.488-48.488 0-26.738 21.752-48.49 48.488-48.49s48.49 21.752 48.49 48.49c0 26.736-21.752 48.488-48.49 48.488zM743.818 156.9c-48.712 0-88.342 39.63-88.342 88.344 0 48.712 39.63 88.342 88.342 88.342 48.714 0 88.344-39.63 88.344-88.342 0-48.714-39.63-88.344-88.344-88.344zM743.818 293.732c-26.736 0-48.488-21.752-48.488-48.488 0-26.738 21.752-48.49 48.488-48.49 26.738 0 48.49 21.752 48.49 48.49 0 26.736-21.752 48.488-48.49 48.488z" />
<glyph unicode="&#xe617;" glyph-name="icon_a1_discount" d="M512 879.5c-238.306 0-431.496-193.198-431.496-431.504s193.19-431.496 431.496-431.496 431.496 193.188 431.496 431.496-193.19 431.504-431.496 431.504zM290.27 560.23c0 25.382 8.218 46.972 24.656 64.698 20.624 22.478 46.892 33.678 78.638 33.678 32.066 0 58.172-11.198 78.476-33.678 16.438-18.288 24.656-40.204 24.656-65.828 0-25.54-8.218-47.454-24.656-65.746-20.142-22.478-46.248-33.758-78.152-33.758-32.552 0-58.816 11.28-78.958 33.758-16.442 18.292-24.66 40.528-24.66 66.876zM414.35 245.764h-53.176l248.642 404.382h53.014l-248.48-404.382zM709.074 271.062c-20.142-22.56-46.086-33.678-78.152-33.678-32.552 0-58.816 11.118-78.958 33.678-16.438 18.288-24.656 40.528-24.656 66.872 0 25.22 8.218 46.65 24.656 64.374 20.624 22.478 46.892 33.758 78.638 33.758 32.228 0 58.334-11.28 78.476-33.758 16.438-18.048 24.656-39.884 24.656-65.504-0.004-25.536-8.222-47.452-24.66-65.742zM630.598 384.83c-13.696 0-24.656-4.672-33.034-14.020-8.218-9.106-12.408-20.304-12.408-33.438 0-14.020 4.19-25.62 12.408-34.806 8.38-9.268 19.336-13.94 33.034-13.94 13.858 0 24.814 4.672 33.196 13.94 8.218 9.344 12.408 20.786 12.408 34.244 0 13.534-4.19 24.896-12.408 34-8.378 9.344-19.338 14.020-33.196 14.020zM439.164 559.424c0 13.454-4.19 24.814-12.408 34-8.38 9.268-19.498 13.94-33.196 13.94-13.696 0-24.656-4.672-33.196-13.94-8.218-9.186-12.248-20.386-12.248-33.758 0-14.102 4.028-25.702 12.248-34.806 8.538-9.344 19.498-13.94 33.196-13.94 13.696 0 24.814 4.592 33.196 13.94 8.218 9.346 12.408 20.868 12.408 34.564z" />
<glyph unicode="&#xe618;" glyph-name="icon_a1_document" d="M512 879.626h-287.75v-863.25h575.5v575.492h-287.75v287.758zM537.81 480c24.766 0 47.012-7.056 66.738-21.166v14.47h43.412v-96.976h-46.652v4.32c0 12.238-3.24 22.534-9.72 30.886-11.088 14.254-27.862 21.382-50.324 21.382-26.926 0-47.804-11.302-62.634-33.908-8.64-13.102-14.83-27.934-18.574-44.492h113.822v-33.26h-117.71c-0.288-3.6-0.432-7.056-0.432-10.366 0-4.176 0.216-9.504 0.648-15.982h98.486v-33.26h-91.79c5.472-15.406 11.088-26.998 16.846-34.772 15.118-20.446 36.428-30.67 63.93-30.67 20.878 0 39.452 5.616 55.722 16.846 6.336 4.464 14.902 12.67 25.702 24.622l32.182-37.364c-12.958-15.838-26.638-27.574-41.036-35.204-21.166-11.374-45.86-17.062-74.082-17.062-47.516 0-83.512 15.982-107.99 47.948-13.678 17.854-23.254 39.74-28.726 65.658h-39.092v33.26h34.988c-0.432 6.48-0.648 11.446-0.648 14.902 0 1.584 0.072 5.4 0.216 11.446h-34.556v33.26h38.012c5.184 29.374 15.91 54.714 32.182 76.026 25.198 32.97 58.892 49.456 101.080 49.456zM548.214 880v-251.784h251.786z" />
<glyph unicode="&#xe619;" glyph-name="icon_a1_email" d="M79.556 730.162l-0.166-432.146 120.814-121.574 615.806-0.442 126.388 127.020 0.21 426.672-863.052 0.47zM840.7 298.174l-23.070-26.324-169.212 148.31-140.706-136.326-135.468 141.44c-52.546-43.1-172.316-141.34-174.57-143.208l-22.978 26.5 173.262 142.066-169.378 176.844 46.8 44.814 284.030-296.54 294.898 285.732 45.11-46.576-175.778-170.306 167.060-146.426z" />
<glyph unicode="&#xe61a;" glyph-name="icon_a1_express" d="M522.81 371.524h-72.484v23.856c0 14.594-11.94 26.534-26.534 26.534h-316.772c-14.594 0-26.534-11.94-26.534-26.534v-182.116h574.134v27.77l-131.81 130.49zM599.874 252.564h-115.696v89.642h31.088l84.608-81.694v-7.948zM80.486 193.392v-70.654c0-8.744 7.154-15.898 15.898-15.898h46.272c6.514 37.094 38.866 65.29 77.826 65.29s71.314-28.196 77.826-65.29h145.068c6.514 37.094 38.866 65.29 77.826 65.29s71.314-28.196 77.826-65.29h39.69c8.744 0 15.898 7.154 15.898 15.898v70.654h-574.13zM220.548 34.86c-32.384 0-58.73 26.346-58.73 58.732 0 32.384 26.346 58.73 58.73 58.73s58.732-26.346 58.732-58.73c0-32.384-26.348-58.732-58.732-58.732zM220.548 125.828c-17.776 0-32.236-14.462-32.236-32.236 0-17.776 14.46-32.236 32.236-32.236s32.236 14.462 32.236 32.236c0 17.776-14.462 32.236-32.236 32.236zM521.668 34.86c-32.384 0-58.73 26.346-58.73 58.732 0 32.384 26.346 58.73 58.73 58.73 32.386 0 58.732-26.346 58.732-58.73s-26.346-58.732-58.732-58.732zM521.668 125.828c-17.774 0-32.236-14.462-32.236-32.236 0-17.776 14.462-32.236 32.236-32.236 17.776 0 32.236 14.462 32.236 32.236 0 17.776-14.46 32.236-32.236 32.236zM739.68 412.564l-116.97 84.068c0.022 0.568 0.044 1.138 0.044 1.712 0 12.886-5.474 24.488-14.216 32.628l36.898 210.426c2.086 9.758-1.030 18.772-9.126 20.502l-3.436 0.734c-7.606 1.626-14.132-5.328-16.218-15.088l-55.724-208.086c-16.058-6.742-27.336-22.612-27.336-41.118 0-24.62 19.958-44.578 44.578-44.578 6.028 0 11.774 1.204 17.020 3.372l-0.338-0.556c-1.718-2.83-0.022 0.012 1.386-0.842l128.164-68.328c5.628-3.418 12.79-2 17.088 5.078l1.824 3.002c4.036 6.648 1.99 13.656-3.638 17.074zM577.756 468.148c-16.444 0-29.774 13.33-29.774 29.774s13.33 29.774 29.774 29.774 29.774-13.33 29.774-29.774-13.332-29.774-29.774-29.774zM696.774 158.592v46.014c125.774 44.306 204.588 165.998 204.588 299.426 0 173.666-141.288 314.956-314.954 314.956-173.668 0-314.956-141.288-314.956-314.956 0-15.414 1.122-31.88 3.336-47.004h-41.706c-2.508 17.138-3.78 29.554-3.78 47.004 0 196.91 160.198 357.106 357.108 357.106 196.908 0 357.106-160.196 357.106-357.106-0.002-151.278-104.13-295.204-246.742-345.44z" />
<glyph unicode="&#xe61b;" glyph-name="icon_a1_facebook" d="M897.376 881.196h-770.752c-26.418 0-47.818-21.406-47.818-47.818v-770.752c0-26.408 21.402-47.818 47.818-47.818h414.946v335.508h-112.906v130.756h112.906v96.428c0 111.904 68.344 172.838 168.172 172.838 47.818 0 88.916-3.56 100.896-5.15v-116.948l-69.24-0.030c-54.29 0-64.802-25.798-64.802-63.656v-83.482h129.48l-16.862-130.756h-112.62v-335.512h220.778c26.404 0 47.818 21.41 47.818 47.818v770.756c0 26.412-21.41 47.818-47.814 47.818z" />
<glyph unicode="&#xe61c;" glyph-name="icon_a1_faq" d="M87.714 191.142h403.712v-109.068h-403.712v109.068zM87.714 437.36h403.712v-109.068h-403.712v109.068zM87.714 683.874h253.508v-109.068h-253.508v109.068zM805.938 819.25h-184.16l-130.352-133.604v-94.88h111.358v47.59l65.032 66.8h92.080l65.32-66.8v-94.882l-65.32-66.802h-101.578v-173.506h111.074v59.41h36.546l130.348 133.604v189.172zM658.318 191.142h111.070v-114.392h-111.070v114.392z" />
<glyph unicode="&#xe61d;" glyph-name="icon_a1_feedback" d="M944 880h-864v-648h216v-216l270 216h378v648zM545.186 347.108h-66.080v65.528h66.080v-65.528zM545.186 477.012h-66.080l-21.342 295.026h108.182l-20.76-295.026z" />
<glyph unicode="&#xe61e;" glyph-name="icon_a1_festnetz" d="M512.002 264.504c-21.664 0-39.298-17.634-39.298-39.298 0-21.686 17.632-39.318 39.298-39.318 21.684 0 39.318 17.632 39.318 39.318 0 21.664-17.632 39.298-39.318 39.298zM512.136 447.502c-61.364 0-119.058-23.914-162.472-67.306l-1.188-1.188 36.454-36.454 1.188 1.21c33.632 33.61 78.276 52.134 125.932 52.134s92.386-18.482 125.954-52.050l1.188-1.21 36.454 36.432-1.188 1.208c-43.35 43.354-101.022 67.224-162.322 67.224zM511.928 360.132c-37.96 0-73.672-14.79-100.534-41.652l-1.21-1.21 36.454-36.454 1.21 1.188c17.144 17.124 39.912 26.544 64.102 26.544 24.21 0 47-9.442 64.186-26.586l1.21-1.188 36.432 36.412-1.21 1.21c-26.906 26.904-62.638 41.736-100.64 41.736zM736.214 442.052c-59.9 59.9-139.556 92.894-224.218 92.894s-164.274-32.994-224.174-92.894l-1.21-1.21 36.432-36.412 1.21 1.188c50.054 50.076 116.766 77.702 187.784 77.852 70.912-0.042 137.602-27.69 187.764-77.788l1.208-1.21 36.412 36.37-1.208 1.21zM560.598 802.638h-97.182l-99.282-70.064v36.134l-176.412-0.022v-160.518l-107.706-75.772v-84.492h107.706v-354.542h648.568v354.542h107.706v84.472l-383.398 270.262zM775.626 508.568v-354.542h-527.24v354.542h-96.842l96.82 68.112v131.364h54.68v-92.81l179.616 126.76h58.69l331.158-233.426h-96.882z" />
<glyph unicode="&#xe61f;" glyph-name="icon_a1_googleplus" d="M411.756 371.422c-3.976 0.514-14.154 0-30.536-1.526-16.14-2.288-32.646-5.978-49.522-11.072-3.976-1.53-9.562-3.82-16.756-6.88-7.202-3.306-14.522-8.020-21.968-14.128-7.202-6.36-13.28-14.256-18.246-23.678-5.712-9.93-8.562-21.894-8.562-35.9 0-27.494 12.406-50.154 37.234-67.982 23.582-17.82 55.854-26.984 96.814-27.498 36.74 0.512 64.792 8.658 84.152 24.444 18.864 15.536 28.3 35.524 28.3 59.962 0 19.86-6.458 37.176-19.364 51.936-13.656 14.010-35 31.192-64.046 51.562-4.968 0.512-10.798 0.76-17.5 0.76zM416.992 705.922c-12.29 8.926-26.414 13.646-42.386 14.158-21.128-0.514-38.7-9.058-52.7-25.636-11.812-17.35-17.462-36.736-16.952-58.156 0-28.314 8.248-57.782 24.756-88.388 7.986-14.286 18.302-26.402 30.934-36.346 12.632-9.954 27.072-14.92 43.318-14.92 20.524 0.762 37.624 8.16 51.308 22.194 6.596 9.946 10.84 20.146 12.724 30.606 1.13 10.452 1.698 19.252 1.698 26.398 0 30.864-7.862 61.984-23.586 93.36-7.372 15.050-17.076 27.292-29.114 36.73zM897.376 881.196h-770.752c-26.418 0-47.818-21.406-47.818-47.818v-770.752c0-26.408 21.402-47.818 47.818-47.818l770.75-0.002c26.404 0 47.818 21.41 47.818 47.818v770.754c-0.002 26.412-21.412 47.818-47.816 47.818zM499.068 704.426c5.872-6.11 11.63-13.622 17.262-22.532 5.384-8.4 10.154-18.326 14.318-29.78 3.424-11.456 5.142-24.82 5.142-40.096-0.464-28.004-6.62-50.402-18.468-67.202-5.812-8.152-11.968-15.656-18.468-22.532-7.2-6.872-14.866-13.876-22.994-21-4.648-4.838-8.942-10.306-12.888-16.418-4.646-6.366-6.97-13.748-6.97-22.148 0-8.148 2.382-14.89 7.148-20.236 4.046-5.096 7.98-9.548 11.796-13.366l26.446-21.764c16.438-13.496 30.852-28.38 43.242-44.674 11.676-16.548 17.756-38.186 18.23-64.916 0-37.926-16.68-71.528-50.038-100.804-34.594-30.294-84.514-45.948-149.746-46.968-54.606 0.514-95.382 12.2-122.312 35.066-27.178 21.348-40.774 46.88-40.774 76.606 0 14.486 4.422 30.618 13.262 48.404 8.58 17.79 24.114 33.418 46.598 46.874 25.254 14.486 51.78 24.14 79.566 28.966 27.524 4.070 50.38 6.35 68.572 6.86-5.622 7.422-10.632 15.358-15.028 23.806-5.134 8.188-7.694 18.044-7.694 29.564 0 6.906 0.974 12.67 2.93 17.276 1.71 4.864 3.298 9.338 4.764 13.43-8.86-1.020-17.208-1.526-25.050-1.526-41.5 0.506-73.136 13.616-94.894 39.324-22.776 23.924-34.162 51.792-34.162 83.61 0 38.436 16.134 73.3 48.404 104.614 22.164 18.32 45.194 30.284 69.088 35.888 23.648 4.83 45.818 7.252 66.51 7.252h155.918l-48.154-28.22h-48.076c4.892-3.048 10.4-7.506 16.52-13.358zM824.008 454.002h-84v-82h-48v82h-82v1.774h-0.516v46.644h82.516v83.582h48v-83.582h82v-0.418h2v-48z" />
<glyph unicode="&#xe620;" glyph-name="icon_a1_handy" d="M648.726 827.172l-3.932 53.742h-53.424l-3.962-53.742h-277.904v-469.228l40.3-340.724h324.392l40.3 340.754v469.198h-65.77zM445.668 110.914h-60.364v37.958h60.364v-37.958zM445.668 211.98h-60.364v37.93h60.364v-37.93zM445.668 312.96h-60.364v37.986h60.364v-37.986zM542.196 110.914h-60.392v37.958h60.392v-37.958zM542.196 211.98h-60.392v37.93h60.392v-37.93zM542.196 312.96h-60.392v37.986h60.392v-37.986zM638.694 110.914h-60.364v37.958h60.364v-37.958zM638.694 211.98h-60.364v37.93h60.364v-37.93zM638.694 312.96h-60.364v37.986h60.364v-37.986zM648.842 423.076h-273.742v328.208h273.742v-328.208z" />
<glyph unicode="&#xe621;" glyph-name="icon_a1_help" d="M622.122 880.084h-220.184l-155.84-155.682v-110.162h133.020v55.082l77.724 77.88h110.24l77.802-77.88v-110.162l-77.802-77.9h-121.484v-201.734h132.862v68.794h43.702l155.74 155.838v220.206zM445.598 148.876h132.862v-132.96h-132.862v132.96z" />
<glyph unicode="&#xe622;" glyph-name="icon_a1_lock_ssl" d="M292.828 19.14v54.47h19.312v-4.208c0-8.584 2.062-15.35 6.19-20.302 3.878-4.54 9.656-8.17 17.332-10.894 6.354-2.228 13.658-3.342 21.912-3.342 14.194 0 25.046 3.26 32.558 9.78 6.932 6.024 10.398 13.946 10.398 23.768 0 9.49-3.674 17.124-11.018 22.902-3.632 2.804-8.708 5.364-15.226 7.676-4.456 1.566-12.132 3.714-23.026 6.438-14.608 3.63-24.758 6.766-30.454 9.408-11.060 5.116-18.488 12.048-22.282 20.798-2.476 5.528-3.714 11.966-3.714 19.312 0 14.688 4.62 26.572 13.864 35.652 10.068 9.984 24.096 14.978 42.090 14.978 17.084 0 30.782-4.746 41.1-14.236v10.398h18.322v-53.354h-19.312v3.342c0 8.334-1.61 14.936-4.828 19.806-3.138 4.704-8.214 8.418-15.226 11.142-5.614 2.228-11.968 3.342-19.064 3.342-11.224 0-19.974-2.89-26.244-8.666-5.862-5.446-8.79-12.298-8.79-20.55 0-9.080 3.714-16.012 11.142-20.798 5.2-3.386 16.34-7.098 33.424-11.142 15.598-3.714 26.45-7.056 32.558-10.028 19.312-9.328 28.968-24.264 28.968-44.814 0-16.094-5.118-29.050-15.35-38.872-11.142-10.566-27.606-15.846-49.394-15.846-18.9 0-34.538 4.744-46.918 14.236v-10.398h-18.324zM453.508 19.14v54.47h19.312v-4.208c0-8.584 2.062-15.35 6.19-20.302 3.878-4.54 9.656-8.17 17.332-10.894 6.354-2.228 13.658-3.342 21.912-3.342 14.194 0 25.046 3.26 32.558 9.78 6.932 6.024 10.398 13.946 10.398 23.768 0 9.49-3.674 17.124-11.018 22.902-3.632 2.804-8.708 5.364-15.226 7.676-4.456 1.566-12.132 3.714-23.026 6.438-14.608 3.63-24.758 6.766-30.454 9.408-11.060 5.116-18.488 12.048-22.282 20.798-2.476 5.528-3.714 11.966-3.714 19.312 0 14.688 4.62 26.572 13.864 35.652 10.068 9.984 24.096 14.978 42.090 14.978 17.084 0 30.782-4.746 41.1-14.236v10.398h18.322v-53.354h-19.312v3.342c0 8.334-1.61 14.936-4.828 19.806-3.138 4.704-8.214 8.418-15.226 11.142-5.614 2.228-11.968 3.342-19.064 3.342-11.224 0-19.974-2.89-26.244-8.666-5.862-5.446-8.79-12.298-8.79-20.55 0-9.080 3.714-16.012 11.142-20.798 5.2-3.386 16.34-7.098 33.424-11.142 15.598-3.714 26.45-7.056 32.558-10.028 19.312-9.328 28.968-24.264 28.968-44.814 0-16.094-5.118-29.050-15.35-38.872-11.142-10.566-27.606-15.846-49.394-15.846-18.9 0-34.538 4.744-46.918 14.236v-10.398h-18.324zM625.7 37.832v145.21h-17.826v18.692h59.916v-18.692h-19.806v-145.21h63.878v32.31h19.312v-51.002h-123.298v18.692h17.824zM682.16 643.302v67.992c0 93.408-75.994 169.404-169.404 169.404h-2.82c-93.41 0-169.404-75.994-169.404-169.404v-67.992h-48.9v-363.008h440.734v363.008h-50.206zM409.678 711.294c0 55.282 44.976 100.26 100.26 100.26h2.82c55.284 0 100.26-44.976 100.26-100.26v-67.992h-203.34v67.992zM546.314 443.128v-72.37c0-15.212-12.446-27.658-27.658-27.658h-17.286c-15.212 0-27.658 12.446-27.658 27.658v72.37c-11.644 10.142-19.014 25.064-19.014 41.718 0 30.55 24.766 55.316 55.316 55.316s55.316-24.766 55.316-55.316c0-16.652-7.37-31.576-19.016-41.718z" />
<glyph unicode="&#xe623;" glyph-name="icon_a1_login" d="M815.354 607.568v157.512l-113.744 114.124h-379.22l-113.742-114.124v-157.51h-94.164v-305.4l68.194-285.372h658.646l68.19 285.366v305.4l-94.16 0.004zM512 607.568h-212.894l0.754 119.712 58.274 58.468h307.738l58.274-58.468 0.754-119.712h-212.9zM567.15 261.888v-127.64h-111.716v127.64c-29.702 18.696-49.51 51.752-49.51 89.532 0 58.38 47.176 105.716 105.372 105.716 58.188 0 105.366-47.334 105.366-105.716 0-37.784-19.81-70.832-49.512-89.532z" />
<glyph unicode="&#xe624;" glyph-name="icon_a1_lupe" d="M943.92 123.41l-226.106 226.106 47.88 47.88v283.784l-200.666 200.664h-283.782l-200.666-200.664v-283.782l200.664-200.664h283.782l47.53 47.53 226.106-226.106 105.258 105.252zM528.254 285.512h-210.234l-148.658 148.658v210.234l148.658 148.658h210.234l148.658-148.658v-210.234l-148.658-148.658z" />
<glyph unicode="&#xe625;" glyph-name="icon_a1_mein-a1" d="M586.468 512.69c32.874 42.614 54.434 112.832 54.434 192.338 0 70.008-16.792 132.654-43.186 175.934h-171.41c-26.438-43.28-43.188-105.926-43.188-175.934 0-79.508 21.542-149.724 54.376-192.338h148.974zM850.334 15.038l-86.892 425.976h-502.884l-86.892-425.976z" />
<glyph unicode="&#xe626;" glyph-name="icon_a1_menu" d="M79.994 736h864.012v-115.204h-864.012v115.204zM79.994 505.598h864.012v-115.198h-864.012v115.198zM79.994 275.198h864.012v-115.198h-864.012v115.198z" />
<glyph unicode="&#xe627;" glyph-name="icon_a1_minus" d="M78.226 520.36h867.55v-144.57h-867.55v144.57z" />
<glyph unicode="&#xe628;" glyph-name="icon_a1_mobile" d="M147.18 880v-621.306l57.422-242.638h616.898l57.516 242.67v621.274h-731.836zM223.212 811.22h579.892v-679.616h-579.892v679.616zM541.272 70.356c0-15.58-12.612-28.192-28.224-28.192-15.55 0-28.16 12.612-28.16 28.192s12.61 28.19 28.16 28.19c15.612 0.002 28.224-12.61 28.224-28.19z" />
<glyph unicode="&#xe629;" glyph-name="icon_a1_money" d="M512.738 880c-238.034 0-431-192.966-431-431s192.966-431 431-431 431 192.966 431 431-192.966 431-431 431zM607.762 273.852c-25.896-15.174-56.522-22.766-91.88-22.766-63.044 0-109.118 22.318-138.224 66.966-15.538 23.75-25.984 50.090-31.342 79.022h-50.092v31.876h46.342c-0.716 9.11-1.072 16.966-1.072 23.574 0 5.714 0.176 11.518 0.536 17.412h-45.806v31.876h49.020c5.176 34.108 16.608 64.376 34.286 90.808 31.248 46.784 75.716 70.182 133.402 70.182 37.502 0 68.576-10.272 93.22-30.806v22.5h39.376v-115.454h-41.52v7.232c0 17.856-3.748 31.878-11.25 42.056-7.142 10-18.214 18.036-33.216 24.108-13.218 5.358-28.218 8.036-45.002 8.036-41.97 0-74.026-18.216-96.168-54.644-10.894-18.216-18.66-39.558-23.304-64.022h160.456v-31.876h-163.94c-0.534-5.718-0.804-11.076-0.804-16.072 0-7.504 0.356-15.804 1.072-24.914h141.972v-31.876h-136.348c5.534-20.356 12.41-37.146 20.626-50.36 21.786-35 54.822-52.502 99.114-52.502 28.752 0 53.932 7.766 75.54 23.306 8.572 6.066 19.912 17.766 34.020 35.090l30.538-32.146c-15.356-20.89-31.872-36.428-49.552-46.606z" />
<glyph unicode="&#xe62a;" glyph-name="icon_a1_network" d="M833.498 501.162c-41.778 0-76.218-31.822-80.684-72.728h-91.872c-5.286 53.584-33.618 100.29-74.832 129.956l95.568 167.322c37.878-18.272 83.918-4.312 105.268 33.054 22.43 39.264 9.136 89.46-29.718 112.146s-88.536 9.238-110.966-30.026c-19.606-34.286-11.908-76.936 16.27-102.292l-95.876-167.886c-25.354 13.704-54.302 21.506-85.046 21.506-27.818 0-54.098-6.364-77.604-17.708l-61.334 107.424c26.022 25.56 32.644 66.62 13.652 99.88-22.43 39.264-72.112 52.712-110.966 30.026s-52.146-72.882-29.718-112.146c22.43-39.264 72.112-52.712 110.966-30.026 0.564 0.308 1.078 0.668 1.642 1.026l59.896-104.858c-47.116-28.948-80.068-79.092-85.816-137.398h-32.798c-4.516 40.906-38.904 72.728-80.684 72.728-44.858 0-81.198-36.646-81.198-81.812s36.338-81.812 81.198-81.812c41.78 0 76.218 31.822 80.684 72.728h31.874c0-0.052 0-0.052 0-0.102 0-65.338 34.080-122.616 85.2-154.746l-47.27-82.736c-37.622 17.348-82.89 3.284-103.986-33.67-22.43-39.264-9.136-89.46 29.718-112.146s88.536-9.238 110.966 30.026c19.812 34.748 11.702 78.014-17.348 103.216l48.144 84.328c22.788-10.522 48.144-16.424 74.832-16.424 31.412 0 60.924 8.11 86.638 22.378l17.45-30.538c-29.666-25.098-38.186-68.878-18.17-103.934 22.43-39.264 72.112-52.712 110.966-30.026s52.146 72.882 29.718 112.146c-21.762 38.084-69.186 51.89-107.476 31.976l-17.142 29.974c47.27 32.848 78.22 87.818 78.22 150.128 0 0.052 0 0.052 0 0.102h90.948c4.516-40.906 38.904-72.728 80.684-72.728 44.858 0 81.198 36.646 81.198 81.812s-36.338 81.812-81.198 81.812l0.002 0.048z" />
<glyph unicode="&#xe62b;" glyph-name="icon_a1_network-new" d="M891.848 724.65h48.1v151.346h-151.326v-151.344h48.104v-151.906l-96.992-96.982h-200.174v248.066c31.444 11.33 54 41.34 54 76.7 0 45.028-36.512 81.53-81.54 81.53-45.070 0-81.582-36.502-81.582-81.53 0-35.36 22.556-65.37 54-76.7v-248.068h-200.172l-96.99 96.982v151.906h48.1v151.346h-151.324v-151.344h48.144v-174.732l101.894-101.904-101.894-101.934v-174.712h-48.144v-151.366h151.326v151.366h-48.1v151.896l97.406 97.408h199.758v-248.504c-31.444-11.318-54-41.31-54-76.66 0-45.046 36.512-81.57 81.582-81.57 45.028 0 81.54 36.522 81.54 81.57 0 35.348-22.556 65.34-54 76.66v248.504h199.758l97.408-97.408v-151.896h-48.104v-151.366h151.326v151.366h-48.1v174.712l-101.936 101.934 101.936 101.904v174.73z" />
<glyph unicode="&#xe62c;" glyph-name="icon_a1_overview" d="M79.968 880.032h235.5v-235.5h-235.5c0 0 0 235.5 0 235.5zM393.508 880.032h237.036v-235.5h-237.036c0 0 0 235.5 0 235.5zM708.532 880.032h235.5v-235.5h-235.5c0 0 0 235.5 0 235.5zM79.968 566.492h235.5v-237.036h-235.5c0 0 0 237.036 0 237.036zM393.508 566.492h237.036v-237.036h-237.036c0 0 0 237.036 0 237.036zM708.532 566.492h235.5v-237.036h-235.5c0 0 0 237.036 0 237.036zM79.968 251.468h235.5v-235.5h-235.5c0 0 0 235.5 0 235.5zM393.508 251.468h237.036v-235.5h-237.036c0 0 0 235.5 0 235.5zM708.532 251.468h235.5v-235.5h-235.5c0 0 0 235.5 0 235.5z" />
<glyph unicode="&#xe62d;" glyph-name="icon_a1_pdf" d="M754.516 879.59h-545.978v-118.012h-91.038v-313.578h91.038v-431.59h697.962v723.418l-151.984 139.762zM589.552 616.59v-23.602h-64.064v-64.064h-30.346v148.358h104.526v-23.602h-74.18v-37.090h64.064zM468.686 601.932c0-12.56-1.446-23.35-4.576-32.454-3.83-10.924-9.292-20.080-16.202-26.802-5.51-5.324-12.608-8.42-21.526-11.36-7.144-2.196-16.064-2.394-27.366-2.394h-55.608v148.358h53.972c12.564 0 22.226 0.29 28.998-1.716 8.732-2.754 16.39-6.696 22.786-13.466 6.396-6.724 11.302-14.648 14.57-24.314 3.32-9.854 4.952-21.606 4.952-35.852v0zM232.142 586.244v-57.32h-33.718v148.358h50.094c18.586 0 30.818 0.29 36.47-1.156 8.592-2.384 16.064-6.744 21.9-14.216 5.84-7.658 8.918-17.402 8.918-29.45 0-9.292-1.82-16.99-5.092-23.34-3.456-6.586-7.658-11.46-12.934-15.102-5.324-3.456-10.6-5.264-15.878-6.338-7.472-1.446-17.884-1.434-31.94-1.434l-17.82-0.002zM852.552 66.988h-593.436v381.012h421.474v313.576h-421.474v67.436h475.508c12.232-10.116 107.814-98.662 117.928-111.040 0-20.452 0-607.152 0-650.984v0zM425.076 645.172c-3.644 3.642-8.358 5.792-14.196 7.054-4.39 1.122-12.61 1.45-25.17 1.45h-15.324v-101.154h24.428c8.548 0 14.758 0.702 18.586 1.636 4.95 1.262 9.154 3.55 12.422 6.446 3.268 3.128 5.836 7.894 8.032 14.85 2.010 6.724 3.082 16.086 3.082 27.948 0 11.674-0.886 20.79-3.082 27.002-2.194 6.352-5.138 11.126-8.778 14.768v0zM278.962 645.92c-3.082 3.642-7.286 5.792-12.19 6.68-3.688 0.748-11.16 1.080-22.086 1.080h-12.546v-43.834h14.368c12.232 0 20.264 1.086 24.28 2.722 4.154 1.636 7.472 4.188 9.666 7.644 2.336 3.452 3.456 7.368 3.456 11.946 0.002 5.458-1.444 10.122-4.948 13.762v0z" />
<glyph unicode="&#xe62e;" glyph-name="icon_a1_pin" d="M710.368 801.514c-109.616 105.82-286.94 105.82-396.556 0-109.616-105.46-109.616-276.988 0-382.45 0 0 198.15-187.532 198.15-403.942 0 216.41 198.458 403.942 198.458 403.942 109.308 105.46 109.308 276.68 0 382.45h-0.052zM511.91 501.75c-61.86 0-112.232 48.422-112.232 108.384s50.32 108.384 112.232 108.384c62.168 0 112.232-48.422 112.232-108.384s-50.32-108.384-112.232-108.384z" />
<glyph unicode="&#xe62f;" glyph-name="icon_a1_play" d="M80 880v-864h864v864h-864zM382.116 265.406v365.188l316.264-182.598-316.264-182.59z" />
<glyph unicode="&#xe630;" glyph-name="icon_a1_play-hollow" d="M80 880v-864h864v864h-864zM883.25 76.75h-742.5v742.5h742.5v-742.5zM387.126 623.722v-351.452l304.366 175.726z" />
<glyph unicode="&#xe631;" glyph-name="icon_a1_plus" d="M584.284 520.308l-0.002 361.394h-144.564l-0.002-361.394-361.49 0.002v-144.57h361.492l-0.002-361.54h144.568l-0.002 361.54h361.492l0.002 144.568z" />
<glyph unicode="&#xe632;" glyph-name="icon_a1_powerline" d="M686.328 561.086c-102.024 110.672-261.786 106.682-348.566-7.030 9.622-8.586 19.418-17.33 28.832-25.732 105.282 91.918 171.208 92.62 293.89 4.47 8.016 8.776 16.198 17.734 25.844 28.292zM431.090 462.696c66.528 55.67 91.716 56.378 164.102 4.002 8.13 9.764 16.388 19.682 24.19 29.052-67.062 75.344-164.494 70.47-214.492-8.738 8.62-8 17.514-16.254 26.2-24.316zM753.898 629.596c0 0-21.174-22.498-30.13-32.016-119.070 114.364-282.174 133.542-427.916-6.006l-27.752 27.092c26.566 38.332 144.266 119.34 250.082 119.34s235.716-108.41 235.716-108.41zM509.766 367.992c-3.036 2.868-5.824 6.068-9.148 8.55-23.062 17.226-31.444 39.892-7.374 58.65 10.802 8.418 39.066 8.408 49.874-0.012 24.098-18.77 15.662-41.418-7.392-58.634-3.324-2.482-6.108-5.686-9.142-8.556-5.606 0.002-11.212 0.002-16.818 0.002zM686.328 561.086c-9.646-10.558-17.828-19.516-25.844-28.292-122.682 88.15-188.608 87.446-293.89-4.47-9.414 8.402-19.21 17.146-28.832 25.732 86.78 113.712 246.542 117.702 348.566 7.030zM431.090 462.696c-8.686 8.062-17.58 16.316-26.198 24.316 49.998 79.208 147.43 84.082 214.492 8.738-7.802-9.37-16.060-19.288-24.19-29.052-72.386 52.376-97.574 51.668-164.104-4.002zM367.234 188.964l-49.54-27.94v-58.422h388.57v58.422l-49.498 27.94zM711.352 793.398l64.74-64.74h102.898v-379.688h-733.958v379.69h109.28l64.74 64.74h-238.804v-286.57l76.276-274.704h710.886l76.342 274.728v286.544h-232.4zM511.978 260.788c-18.182 0-32.984 14.782-32.984 32.94 0 18.224 14.804 32.984 32.984 32.984 18.246 0 32.94-14.76 32.94-32.984 0-18.158-14.694-32.94-32.94-32.94z" />
<glyph unicode="&#xe633;" glyph-name="icon_a1_present" d="M214.558 589.86h269.572v-254.812h-269.572v254.812zM539.87 589.86h269.572v-254.812h-269.572v254.812zM214.558 269.812h269.572v-254.812h-269.572v254.812zM539.87 269.812h269.572v-254.812h-269.572v254.812zM496.67 629.712l-128.14 0.028c-68.45 1.060-124.14 57.636-124.14 126.116 0 69.556 56.586 126.142 126.142 126.142 69.554 0 126.138-56.702 126.138-126.4v-125.886zM369.062 674.572l82.774-0.016-0.006 81.98c-0.502 44.546-36.78 80.628-81.3 80.628-44.832 0-81.308-36.474-81.308-81.308 0.002-44.084 35.802-80.514 79.84-81.284zM636.522 629.718l-109.674 0.002 0.024 111.63c0.924 59.632 50.21 108.146 109.87 108.146 60.592 0 109.888-49.296 109.888-109.89s-49.396-109.888-110.108-109.888zM571.69 674.554l65.582 0.002c35.646 0.402 64.52 29.428 64.52 65.048 0 35.872-29.182 65.054-65.052 65.054-35.264 0-64.404-28.626-65.036-63.844l-0.014-66.26z" />
<glyph unicode="&#xe634;" glyph-name="icon_a1_present-new" d="M319.692 488.782c0 59.26 47.896 107.496 106.778 107.496 23.652 0 45.49-7.9 63.188-21.076v303.138h-274.084l-130.388-108.93v-343.984h255.246c-12.968 17.802-20.74 39.618-20.74 63.356zM324.718 185.134l-31.764 31.466 162.786 164.138h-370.554v-363.078h404.472v333.806zM802.554 878.34h-268.21v-303.184c17.74 13.178 39.576 21.12 63.314 21.12 58.838 0 106.734-48.236 106.734-107.496 0-23.738-7.77-45.554-20.736-63.358h255.158v337.906l-136.26 115.012zM426.468 426.058c-34.214 0-62.090 28.13-62.090 62.724 0 34.614 27.876 62.764 62.090 62.764 34.212 0 62.090-28.15 62.090-62.764 0-34.592-27.878-62.724-62.090-62.724zM597.658 426.058c-34.256 0-62.134 28.13-62.134 62.724 0 34.614 27.878 62.764 62.134 62.764 34.212 0 62.046-28.15 62.046-62.764 0.002-34.592-27.834-62.724-62.046-62.724zM731.088 216.6l-31.72-31.466-165.024 166.332v-333.806h404.47v363.078h-370.51zM426.468 551.546c-34.214 0-62.090-28.15-62.090-62.764 0-34.592 27.876-62.724 62.090-62.724 34.212 0 62.090 28.13 62.090 62.724 0 34.614-27.878 62.764-62.090 62.764zM597.658 551.546c-34.256 0-62.134-28.15-62.134-62.764 0-34.592 27.878-62.724 62.134-62.724 34.212 0 62.046 28.13 62.046 62.724 0.002 34.614-27.834 62.764-62.046 62.764z" />
<glyph unicode="&#xe635;" glyph-name="icon_a1_print-new" d="M79.404 880.596v-865.192h865.192v865.192h-865.192zM768.622 425.52l-75.11-69.17h-34.858v-128.322h-293.284v128.322h-38.132l-71.858 66.164v153.824h109.99v91.632h293.284v-91.632h109.968v-150.818zM658.652 447.986h-293.282v36.664h-36.686v-73.3h366.632v73.3h-36.664z" />
<glyph unicode="&#xe636;" glyph-name="icon_a1_protection" d="M460.482 600.298c-3.308-6.618-6.284-13.73-8.954-21.216 15.46-2.956 31.876-4.778 48.786-5.356v69.316c-14.56-5.17-28.398-19.874-39.832-42.744zM500.318 389.78c-16.932-0.574-33.338-2.396-48.788-5.35 2.67-7.49 5.646-14.604 8.958-21.222 11.434-22.868 25.268-37.574 39.832-42.748l-0.002 69.32zM523.686 573.724c16.932 0.574 33.342 2.396 48.788 5.35-2.67 7.49-5.646 14.604-8.958 21.226-11.434 22.872-25.272 37.578-39.836 42.748v-69.322h0.006zM563.522 363.208c3.308 6.618 6.284 13.73 8.954 21.216-15.46 2.956-31.876 4.778-48.786 5.356v-69.316c14.56 5.166 28.394 19.872 39.832 42.744zM569.472 634.686c5.278-7.004 10.212-15.022 14.728-24.050 4.078-8.158 7.708-16.95 10.898-26.234 11.89 3.374 22.956 7.48 32.926 12.272-16.412 16.57-36.338 29.638-58.552 38.012zM500.318 493.314v57.274c-19.186 0.622-37.87 2.75-55.462 6.268-4.886-19.616-7.806-41.12-8.556-63.542h64.018zM523.686 550.584v-57.27h64.016c-0.75 22.416-3.668 43.922-8.556 63.538-17.576-3.51-36.25-5.65-55.46-6.268zM523.686 470.188v-57.27c19.186-0.62 37.87-2.75 55.462-6.268 4.888 19.616 7.806 41.12 8.556 63.538h-64.018zM500.318 412.918v57.27h-64.018c0.75-22.42 3.668-43.922 8.556-63.538 17.578 3.51 36.25 5.65 55.462 6.268zM628.034 366.842c-9.962 4.786-21.056 8.87-32.944 12.242-3.19-9.278-6.818-18.066-10.894-26.216-4.512-9.024-9.45-17.048-14.726-24.046 22.222 8.372 42.152 21.446 58.564 38.020zM601.608 562.258c5.316-21.4 8.468-44.736 9.23-68.948h64.104c-2.234 31.778-13.564 61.080-31.444 85.29-12.488-6.5-26.592-11.988-41.89-16.342zM395.966 596.664c9.962-4.786 21.056-8.87 32.944-12.242 3.19 9.278 6.818 18.066 10.894 26.216 4.512 9.028 9.45 17.048 14.728 24.050-22.22-8.378-42.15-21.45-58.566-38.024zM865.036 768.734c-0.078 0.078-5.74 1.228-16.98 3.442-11.242 2.218-16.942 3.324-17.098 3.324-0.158 0-6.096 0.948-17.814 2.848-11.714 1.9-19.078 3.088-22.086 3.56-3.008 0.476-10.45 1.82-22.326 4.036s-18.92 3.564-21.138 4.036c-2.218 0.476-7.124 1.582-14.726 3.324-7.6 1.742-15.438 3.72-23.51 5.936-8.076 2.218-14.726 4.118-19.95 5.7s-9.5 2.93-12.824 4.036-6.096 2.058-8.312 2.848c-2.218 0.794-7.52 2.69-15.914 5.7-8.39 3.008-14.802 5.384-19.238 7.124-4.434 1.742-10.766 4.434-19.002 8.076-8.232 3.642-12.626 5.502-13.18 5.582-0.554 0.078-9.106 4.036-25.65 11.874-16.544 7.836-26.244 12.468-29.092 13.894-2.848 1.424-8.708 4.434-17.574 9.024l-13.296 6.902h-6.176l-13.062-6.888c-8.708-4.59-15.99-8.312-21.85-11.162-5.858-2.848-11.796-5.7-17.814-8.548s-12.744-6.018-20.186-9.5-11.438-5.264-11.994-5.342c-0.554-0.078-4.988-1.978-13.3-5.7-8.312-3.72-17.22-7.402-26.716-11.042-9.5-3.642-15.832-6.018-18.998-7.124-3.166-1.108-6.49-2.218-9.976-3.324-3.484-1.108-8.312-2.694-14.486-4.748-6.176-2.058-13.538-4.276-22.086-6.648s-18.684-4.908-30.398-7.6c-11.714-2.694-21.138-4.67-28.262-5.936s-18.92-3.324-35.386-6.176c-16.466-2.848-28.738-4.908-36.812-6.176-8.072-1.27-14.408-2.294-18.998-3.088s-7.402-1.464-8.43-2.018l-1.542-0.83v-16.386c0-10.924 0.554-29.528 1.664-55.812 1.108-26.282 1.978-45.202 2.612-56.76 0.634-11.56 1.188-22.484 1.664-32.774s1.506-25.568 3.088-45.836c1.582-20.266 2.612-32.38 3.088-36.336 0.476-3.958 1.978-12.272 4.512-24.938s4.512-22.326 5.936-28.974 3.878-16.784 7.36-30.398c3.482-13.614 6.648-25.174 9.5-34.674 2.848-9.5 5.7-18.444 8.548-26.838 2.848-8.39 5.066-14.644 6.648-18.762s3.8-9.736 6.648-16.862c2.848-7.124 4.276-10.766 4.276-10.924s1.424-3.564 4.276-10.212c2.848-6.648 5.066-11.636 6.648-14.962 1.582-3.324 3.406-6.888 5.46-10.688 2.058-3.8 5.146-9.42 9.262-16.862 4.118-7.442 6.69-11.994 7.718-13.656 1.030-1.664 3.166-5.224 6.412-10.688 3.246-5.46 5.224-8.866 5.936-10.212s2.218-3.8 4.512-7.36c1.664-2.612 3.324-5.224 4.988-7.836 1.030-1.664 2.534-3.958 4.512-6.888s3.564-5.306 4.748-7.124c1.188-1.82 2.612-3.878 4.276-6.176s2.97-4.154 3.918-5.582c0.948-1.424 2.1-3.048 3.442-4.87 1.346-1.82 2.848-3.878 4.512-6.176 1.664-2.294 3.246-4.512 4.748-6.648s3.008-4.196 4.512-6.176c1.506-1.978 3.564-4.59 6.176-7.836s4.59-5.7 5.936-7.36c1.346-1.664 5.384-6.176 12.112-13.538 6.73-7.36 11.084-12.112 13.062-14.25 1.978-2.136 5.46-5.7 10.448-10.688s7.796-7.796 8.43-8.43c0.634-0.634 3.76-3.442 9.382-8.43 5.62-4.988 9.26-8.154 10.924-9.5s5.46-4.672 11.4-9.976c5.936-5.306 10.448-9.26 13.538-11.874 3.088-2.612 6.73-5.7 10.924-9.26 4.196-3.56 7.56-6.372 10.094-8.43s4.79-3.84 6.766-5.342c1.978-1.502 3.878-2.848 5.7-4.036 1.82-1.188 5.146-3.246 9.974-6.176 4.83-2.93 8.076-4.908 9.736-5.936 1.664-1.030 4.118-2.612 7.36-4.748 3.246-2.136 5.264-3.524 6.054-4.154 0.794-0.634 3.8-2.294 9.024-4.988 5.224-2.69 8.948-4.59 11.162-5.7 2.218-1.106 4.276-1.9 6.176-2.376l2.848-0.712 2.612 0.948c1.742 0.634 4.83 1.978 9.26 4.036 4.432 2.058 8.232 3.878 11.4 5.464 3.166 1.582 5.224 2.69 6.176 3.324 0.948 0.634 2.454 1.664 4.512 3.088s4.036 2.69 5.936 3.8c1.9 1.106 3.602 2.176 5.106 3.206 1.506 1.030 4.67 3.008 9.5 5.936 4.83 2.93 8.154 4.988 9.976 6.176 1.82 1.188 3.72 2.534 5.7 4.036 1.978 1.506 4.87 3.84 8.666 7.006s6.766 5.66 8.906 7.482c2.14 1.822 4.036 3.406 5.7 4.748 1.664 1.346 5.146 4.354 10.45 9.024 5.306 4.672 8.63 7.6 9.976 8.788s5.066 4.512 11.162 9.976c6.096 5.46 9.974 8.866 11.638 10.212s5.026 4.552 10.094 9.618c5.066 5.066 10.924 11.162 17.574 18.286 6.648 7.124 12.43 13.46 17.338 19.002s8.114 9.302 9.618 11.28c1.506 1.978 3.324 4.354 5.46 7.124s4.118 5.46 5.936 8.076c1.82 2.612 3.72 5.224 5.7 7.836 1.978 2.612 3.484 4.748 4.512 6.412 1.030 1.664 2.454 3.72 4.276 6.176 1.82 2.454 3.72 5.146 5.7 8.076 1.978 2.93 3.72 5.46 5.224 7.6 1.506 2.136 3.484 5.146 5.936 9.024 2.454 3.878 4.276 6.73 5.46 8.548 1.188 1.82 3.72 6.096 7.6 12.824 3.878 6.73 6.332 10.924 7.36 12.586 1.030 1.664 4.036 6.966 9.024 15.914s7.878 14.132 8.666 15.556c0.79 1.424 3.166 6.49 7.124 15.2s7.206 16.15 9.736 22.326c2.534 6.176 4.672 11.478 6.412 15.914 1.742 4.434 3.958 10.372 6.648 17.814s4.672 13.142 5.936 17.102c1.266 3.958 2.376 7.284 3.324 9.974s1.664 4.908 2.136 6.648c0.476 1.742 1.9 6.808 4.276 15.2 2.376 8.39 4.434 16.23 6.176 23.51s3.72 15.754 5.936 25.41c2.218 9.66 4.276 19.238 6.176 28.738s3.56 19.554 4.988 30.162c1.424 10.608 2.69 23.354 3.8 38.236 1.106 14.884 2.612 41.006 4.512 78.374s3.088 67.844 3.564 91.436l0.712 35.386-0.078 0.096zM683.864 409.146c-9.402-22.222-22.852-42.168-39.974-59.286-17.122-17.124-37.068-30.574-59.282-39.97-22.998-9.726-47.428-14.66-72.606-14.66s-49.606 4.934-72.606 14.66c-22.21 9.392-42.158 22.846-59.282 39.974-17.124 17.118-30.57 37.064-39.966 59.282-9.73 23-14.664 47.428-14.664 72.606 0 25.174 4.934 49.602 14.664 72.606 9.392 22.21 22.842 42.158 39.966 59.286 17.128 17.124 37.070 30.574 59.282 39.966 23.004 9.73 47.432 14.664 72.606 14.664s49.602-4.934 72.606-14.664c22.214-9.396 42.16-22.842 59.282-39.966 17.124-17.124 30.574-37.068 39.974-59.286 9.726-23 14.66-47.428 14.66-72.606s-4.934-49.606-14.66-72.606zM610.838 470.188c-0.762-24.216-3.918-47.558-9.238-68.964 15.298-4.35 29.42-9.824 41.9-16.318 17.878 24.208 29.208 53.508 31.442 85.282h-64.104zM413.164 493.314c0.762 24.216 3.918 47.558 9.238 68.964-15.298 4.35-29.42 9.824-41.9 16.318-17.878-24.208-29.208-53.508-31.442-85.282h64.104zM422.396 401.24c-5.316 21.4-8.468 44.74-9.23 68.948h-64.108c2.234-31.778 13.568-61.084 31.448-85.292 12.486 6.504 26.59 11.992 41.89 16.344zM454.528 328.816c-5.278 7.004-10.212 15.022-14.726 24.046-4.076 8.154-7.708 16.95-10.898 26.234-11.89-3.376-22.956-7.48-32.924-12.274 16.416-16.564 36.338-29.628 58.548-38.006z" />
<glyph unicode="&#xe637;" glyph-name="icon_a1_settings" d="M725.036 428.31c-2.29 3.11-4.376 6.386-6.778 9.422-2.458 3.146-5.102 5.884-7.708 8.788l-61.554-22.546c-10.24 9.252-21.132 17.334-32.62 24.184l3.91 65.78c-7.020 3.148-14.262 5.922-21.526 8.398l-42.022-50.346c-13.33 2.942-26.958 4.508-40.606 4.75l-29.306 58.704c-7.708-0.82-15.38-1.882-22.902-3.332l-11.322-64.868c-12.772-3.966-25.246-9.514-37.256-16.124l-54.83 36.176c-3.204-2.272-6.406-4.356-9.532-6.74-3.036-2.496-5.718-5.214-8.696-7.746l22.546-61.666c-9.31-10.166-17.352-21.038-24.184-32.544l-65.762 3.892c-3.164-7.038-5.976-14.262-8.432-21.524l50.29-42.022c-2.85-13.33-4.45-26.922-4.674-40.608l-58.76-29.4c0.876-7.56 2.028-15.23 3.352-22.79l64.886-11.338c4.078-12.792 9.404-25.21 16.068-37.22l-36.084-54.888c2.328-3.164 4.282-6.404 6.852-9.402 2.384-3.128 5.064-5.866 7.576-8.864l61.646 22.586c10.26-9.198 21.040-17.28 32.638-24.148l-3.892-65.78c7.114-3.128 14.224-5.938 21.486-8.38l42.022 50.328c13.388-2.942 26.904-4.488 40.46-4.712l29.528-58.686c7.522 0.746 15.23 1.786 22.808 3.24l11.342 64.924c12.754 3.91 25.156 9.384 37.146 16.104l54.924-36.12c3.074 2.234 6.348 4.282 9.496 6.702 3.034 2.534 5.826 5.196 8.75 7.634l-22.64 61.778c9.254 10.128 17.354 21.020 24.336 32.49l65.612-3.816c3.24 7.056 6.032 14.206 8.472 21.466l-50.402 42.134c3.072 13.182 4.618 26.83 4.804 40.44l58.704 29.436c-0.838 7.578-1.862 15.194-3.296 22.846l-64.904 11.264c-3.984 12.846-9.384 25.23-16.18 37.256l36.214 54.888zM572.288 200.938c-41.186-32.526-100.97-25.618-133.59 15.604-32.6 41.11-25.544 101.044 15.548 133.534 41.24 32.602 101.080 25.676 133.626-15.566 32.564-41.112 25.6-100.914-15.584-133.572zM902.36 795.508c-1.75 2.494-3.352 5.064-5.214 7.502-2.084 2.458-4.15 4.636-6.068 6.946l-48.912-17.948c-8.1 7.372-16.644 13.89-25.842 19.252l3.202 52.020c-5.658 2.532-11.264 4.728-17.11 6.702l-33.364-39.882c-10.482 2.346-21.262 3.574-32.024 3.78l-23.312 46.472c-6.032-0.632-12.082-1.434-18.098-2.55l-8.936-51.444c-10.204-3.22-19.96-7.448-29.512-12.752l-43.476 28.598c-2.4-1.75-5.044-3.408-7.466-5.362-2.494-1.882-4.672-4.042-7.056-6.090l17.948-48.874c-7.372-7.986-13.776-16.608-19.176-25.692l-52.078 3.016c-2.458-5.568-4.71-11.284-6.646-17.018l39.808-33.364c-2.254-10.502-3.612-21.3-3.724-32.098l-46.436-23.292c0.616-5.976 1.49-12.046 2.552-18.058l51.426-8.994c3.22-10.056 7.522-19.96 12.716-29.474l-28.562-43.328c1.824-2.568 3.482-5.138 5.326-7.596 1.938-2.496 4.172-4.58 6.126-6.946l48.8 17.912c8.136-7.336 16.738-13.74 25.844-19.214l-3.054-52.078c5.568-2.494 11.19-4.728 16.886-6.684l33.422 39.92c10.538-2.308 21.206-3.556 31.986-3.816l23.442-46.398c5.92 0.614 12.064 1.434 18.022 2.55l8.956 51.426c10.13 3.184 20.072 7.428 29.566 12.792l43.42-28.672c2.384 1.786 5.12 3.408 7.522 5.362 2.346 1.974 4.544 4.078 6.908 6.052l-17.93 48.856c7.392 8.044 13.776 16.682 19.214 25.88l52.056-3.146c2.496 5.568 4.712 11.284 6.816 17.016l-39.92 33.31c2.29 10.556 3.556 21.338 3.65 32.118l46.472 23.31c-0.558 6.034-1.47 12.102-2.568 18.060l-51.352 8.994c-3.258 10.092-7.504 19.976-12.81 29.454l28.56 43.47zM781.432 615.428c-32.712-25.806-80.060-20.35-105.83 12.252-25.806 32.656-20.276 80.042 12.306 105.866 32.676 25.824 80.004 20.332 105.868-12.288 25.806-32.622 20.258-79.968-12.344-105.83zM345.624 652.74c-1.21 1.656-2.364 3.52-3.65 5.232-1.452 1.732-2.904 3.258-4.282 4.898l-34.334-12.568c-5.696 5.12-11.692 9.662-18.098 13.46l2.196 36.53c-3.91 1.824-7.932 3.37-12.026 4.674l-23.386-27.948c-7.372 1.658-14.858 2.476-22.492 2.608l-16.346 32.638c-4.208-0.466-8.434-1.024-12.736-1.808l-6.256-36.1c-7.114-2.216-14.038-5.196-20.704-8.956l-30.536 20.108c-1.676-1.324-3.5-2.384-5.176-3.742-1.77-1.378-3.278-2.868-4.954-4.282l12.606-34.314c-5.196-5.606-9.646-11.656-13.518-18.060l-36.494 2.102c-1.806-3.892-3.314-7.838-4.784-11.934l28.096-23.404c-1.656-7.354-2.55-14.932-2.68-22.492l-32.598-16.382c0.41-4.19 1.024-8.472 1.788-12.7l36.064-6.274c2.27-7.076 5.306-14.058 9.010-20.704l-20.128-30.498c1.324-1.75 2.44-3.556 3.706-5.306 1.434-1.656 2.942-3.204 4.376-4.786l34.296 12.51c5.66-5.174 11.748-9.682 18.078-13.442l-2.158-36.548c3.872-1.844 7.856-3.332 11.916-4.766l23.402 28.020c7.428-1.582 14.914-2.458 22.436-2.606l16.476-32.622c4.152 0.448 8.508 1.042 12.642 1.788l6.33 36.138c7.094 2.18 14.020 5.232 20.706 8.994l30.516-20.238c1.674 1.376 3.536 2.512 5.212 3.854 1.712 1.378 3.22 2.906 4.954 4.226l-12.624 34.35c5.138 5.606 9.698 11.732 13.534 18.080l36.474-2.16c1.786 3.856 3.258 7.896 4.804 11.936l-28.004 23.366c1.528 7.408 2.422 14.968 2.512 22.584l32.64 16.31c-0.484 4.302-0.952 8.434-1.788 12.678l-36.102 6.35c-2.232 7.112-5.232 14.038-8.916 20.666l20 30.54zM260.742 526.356c-22.846-18.21-56.062-14.318-74.234 8.602-18.136 22.9-14.262 56.21 8.602 74.27 22.994 18.116 56.134 14.262 74.288-8.602 18.134-22.918 14.262-56.208-8.656-74.27z" />
<glyph unicode="&#xe638;" glyph-name="icon_a1_share-new" d="M79.404 880.596v-865.192h865.192v865.192h-865.192zM768 536.56h-157.564v14.48l-196.874-98.462v-25.018l196.874-87.498v19.33h157.564v-157.55h-157.564v89.332l-196.874 87.512v-19.294h-157.562v157.514h157.564v-14.392l196.874 98.486v93.16h157.562v-157.6z" />
<glyph unicode="&#xe639;" glyph-name="icon_a1_speedmeter" d="M519.318 430.858c-2.456 0.154-4.76 0.716-7.216 0.716-39.71 0-72.052-32.342-72.052-72.052s32.342-71.846 72.052-71.846c39.66 0 71.846 32.136 71.846 71.846 0 2.456-0.512 4.964-0.666 7.368l133.868 197.886c0.002 0-197.832-133.918-197.832-133.918zM512.154 791.422h-0.052c-238.262 0-431.9-193.638-431.9-431.9 0-90.832 29.322-181.306 82.388-254.944l58.338 42.166c-37.254 51.634-60.282 113.298-66.73 176.906h33.876v71.898h-34.030c7.216 72.206 35.822 138.27 79.574 191.694l22.67-22.874 50.968 50.968-22.874 22.67c53.424 43.702 119.488 72.358 191.694 79.574v-34.082h71.846v34.082c72.41-7.216 138.32-35.822 191.694-79.574l-22.67-22.67 50.764-50.968 22.67 22.874c43.752-53.424 72.358-119.488 79.626-191.694h-34.082v-71.898h33.928c-6.5-63.608-29.374-125.272-66.78-176.906l58.338-42.166c53.272 73.638 82.388 164.112 82.388 254.944 0 238.262-193.588 431.9-431.644 431.9z" />
<glyph unicode="&#xe63a;" glyph-name="icon_a1_star" d="M808.466 45.924l-97.46 300.11 233.532 169.742-16.488 64.24h-293.040l-95.746 294.466h-54.568l-95.664-294.466h-293.080l-16.49-64.24 233.534-169.742-97.544-300.11 48.772-24.406 247.818 180.098 247.736-180.098z" />
<glyph unicode="&#xe63b;" glyph-name="icon_a1_telefon" d="M684.568 549.74h-345.18l-148.032-114.040-12.5-221.304h666.278l-12.506 221.304-148.060 114.040zM444.096 273.644h-61.808v38.87h61.808v-38.87zM444.096 356.75h-61.808v38.842h61.808v-38.842zM444.096 439.78h-61.808v38.818h61.808v-38.818zM542.904 273.644h-61.792v38.87h61.792v-38.87zM542.904 356.75h-61.792v38.842h61.792v-38.842zM542.904 439.78h-61.792v38.818h61.792v-38.818zM641.708 273.644h-61.802v38.87h61.802v-38.87zM641.708 356.75h-61.802v38.842h61.802v-38.842zM641.708 439.78h-61.802v38.818h61.802v-38.818zM780.54 681.602h-537.072l-164.206-76.646 21.054-124.538h104.166l134.906 111.964h345.18l134.94-111.964h104.176l21.054 124.538-164.198 76.646z" />
<glyph unicode="&#xe63c;" glyph-name="icon_a1_tipp" d="M609.672 175.458h-203.482l-117.736 288.734-0.072 4.53c0 4.53 0.708 112.322 70.388 182.072 37.652 37.724 87.692 56.87 148.772 56.87h0.816c61.044 0 111.082-19.146 148.808-56.87 69.644-69.75 70.28-177.542 70.28-182.072v-4.53l-117.774-288.734zM437.366 221.834h141.164l102.448 251.238c-1.166 29.018-14.544 188.23-172.622 188.23h-0.816c-48.304 0-87.338-14.598-116.002-43.28-49.332-49.384-55.736-126.3-56.55-145.056l102.378-251.132zM583.2 93.146l25.728 14.544v30.398h-201.996v-30.398l25.798-14.544zM563.986 16.566l25.726 14.51v30.378h-163.6v-30.378l25.764-14.51zM489.848 879.434h39.846v-133.024h-39.846v133.024zM754.976 630.056l-28.276 28.202 96.716 96.718 28.238-28.24zM123.862 415.32l-8.104 39.068 130.44 27.072 8.106-39.034zM900.066 415.32l-130.406 27.106 8.142 39.034 130.44-27.072zM271.22 630.056l-96.716 96.68 28.202 28.24 96.752-96.718z" />
<glyph unicode="&#xe63d;" glyph-name="icon_a1_tv" d="M367.11 189.174l-49.514-27.924v-58.39h388.352v58.39l-49.47 27.924h-289.368zM575.404 450.18h23.234l43.31 136.706h14.006v24.504h-59.904v-24.504h16.374l-19.222-63.914c-2.41-8.088-4.536-16.724-6.334-25.908-1.468 7.124-3.856 15.738-7.232 25.776l-20.954 64.046h15.694v24.504h-60.080v-24.504h13.678l47.43-136.706zM396.352 586.886h25.776v-112.266h-23.168v-24.438h75.97v24.438h-23.3v112.266h25.688v-20.626h25.602v45.13h-132.124v-45.13h25.558v20.626zM80.286 793.27v-286.408l76.232-274.55h710.486l76.298 274.572v286.386h-863.016zM511.774 260.958c-18.172 0-32.966 14.772-32.966 32.922 0 18.214 14.794 32.966 32.966 32.966 18.236 0 32.922-14.752 32.922-32.966 0-18.15-14.688-32.922-32.922-32.922zM878.578 349.092h-733.544v379.474h733.544v-379.474z" />
<glyph unicode="&#xe63e;" glyph-name="icon_a1_tv-empty" d="M367.288 189.062l-49.522-27.93v-58.402h388.424v58.402l-49.48 27.93h-289.422zM80.41 793.27v-286.462l76.248-274.602h710.62l76.312 274.624v286.44h-863.18zM511.978 260.858c-18.174 0-32.972 14.776-32.972 32.928 0 18.218 14.798 32.972 32.972 32.972 18.238 0 32.928-14.754 32.928-32.972 0-18.152-14.688-32.928-32.928-32.928zM878.852 349.008h-733.682v379.546h733.682v-379.546z" />
<glyph unicode="&#xe63f;" glyph-name="icon_a1_twitter" d="M79.404 880.596v-865.192h865.192v865.192h-865.192zM709.822 547.018c0-259.798-260.604-364.362-430.318-250.146 0 0 80.436-10.456 144.782 41.022 0 0-71.588 0-93.304 68.368 0 0 29.76-4.826 45.848 2.412 0 0-75.606 16.086-79.63 98.128 0 0 12.87-14.478 45.848-12.87 0 0-72.388 44.238-31.368 134.322 0 0 79.27-111.526 203.494-104.56-15.28 59.52 26.542 105.366 61.936 116.626 35.39 11.26 80.434 2.414 106.974-26.542 0 0 39.41 9.652 63.542 24.128 0 0-13.672-38.606-45.042-53.888 0 0 24.936 0.804 57.91 15.282 0 0-19.302-28.956-50.672-52.282z" />
<glyph unicode="&#xe640;" glyph-name="icon_a1_wordpress" d="M510.69 878.568c-238.522 0-431.882-193.36-431.882-431.882s193.36-431.88 431.882-431.88 431.882 193.36 431.882 431.882-193.36 431.88-431.882 431.88zM510.69 62.794c-212.020 0-383.894 171.874-383.894 383.894s171.874 383.89 383.894 383.89 383.894-171.874 383.894-383.894-171.874-383.89-383.894-383.89zM513.908 422.078l-57.042-166.434h-0.172l-44.174-127.126c3.13-0.87 6.086-1.564 9.218-2.434 0.174 0 0.35 0 0.522 0 27.48-7.304 56.348-11.306 86.088-11.306 14.782 0 29.218 0.87 43.304 3.13 19.478 2.434 38.258 6.608 56.52 12.348 4.518 1.392 9.044 2.956 13.564 4.522-4.872 10.432-15.304 33.562-15.826 34.606l-92.002 252.694zM204 579.99c-17.39-39.306-29.218-87.654-29.218-131.304 0-10.954 0.522-21.91 1.564-32.692 12-123.826 92-227.822 201.91-274.604 4.522-1.914 9.218-3.824 13.912-5.566l-161.738 443.992c-13.91 0.518-16.518-0.352-26.43 0.174zM811.644 588.858c-7.476 16.176-16.35 31.652-26.262 46.26-2.782 4.174-5.914 8.348-8.868 12.52-37.392 50.088-88.348 89.39-147.65 112.344-37.216 14.608-77.912 22.608-120.346 22.608-104.868 0-198.604-48.696-259.82-124.694-11.306-13.912-21.394-28.87-30.434-44.522 24.694-0.174 55.304-0.174 58.784-0.174 31.478 0 80 3.828 80 3.828 16.348 1.042 18.086-22.786 1.914-24.696 0 0-16.35-1.914-34.436-2.782l109.39-325.214 65.738 197.044-46.608 127.998c-16.35 0.87-31.478 2.782-31.478 2.782-16.35 0.87-14.262 25.738 1.738 24.694 0 0 49.564-3.824 79.128-3.824 31.478 0 80 3.824 80 3.824 16.176 1.042 18.258-22.782 1.914-24.694 0 0-16.176-1.914-34.262-2.782l108.346-322.778 30.088 100.172c15.132 38.956 22.782 71.132 22.782 96.866 0 37.042-13.392 62.782-24.872 82.782-15.128 24.872-29.39 45.74-29.39 70.262 0 27.648 20.87 53.39 50.434 53.39 1.22 0 2.61 0 3.824 0 45.566 1.22 60.522-44 62.436-74.78 0 0 0-0.698 0-1.046 0.694-12.52 0.172-21.738 0.172-32.692 0-30.262-5.738-64.522-22.782-107.476l-67.824-196.174-38.784-114.258c3.13 1.392 6.086 2.782 9.218 4.346 98.608 47.652 170.434 142.608 185.562 255.126 2.26 14.784 3.308 29.91 3.308 45.216-0.002 50.264-11.134 97.916-30.96 140.524z" />
<glyph unicode="&#xe641;" glyph-name="icon_a1_wrench" d="M680.55 464.492l207.716 55.658 55.656 207.714-20.526 20.528-162.858-162.858-109.482 109.48 162.858 162.858-22.048 22.050-207.718-55.656-55.654-207.714 22.048-22.052-104.576-104.574-21.29 21.29-344.598-344.602 150.538-150.536 344.6 344.6-21.29 21.286 104.576 104.576z" />
<glyph unicode="&#xe642;" glyph-name="icon_a1_youtube" d="M450.83 531.5v-154.416l144.41 78.83zM79.404 880.596v-865.192h865.192v865.192h-865.192zM237.864 433.7v41.36c0 44.11 5.41 88.222 5.41 88.222s5.278 37.566 21.498 54.108c20.574 21.712 43.624 21.818 54.196 23.090 75.696 5.516 189.24 5.516 189.24 5.516h0.238c0 0 113.546 0 189.24-5.516 10.572-1.27 33.63-1.378 54.198-23.090 16.216-16.542 21.504-54.108 21.504-54.108s5.402-44.112 5.402-88.222v-41.36c0-44.114-5.402-88.222-5.402-88.222s-5.286-37.566-21.504-54.108c-20.568-21.712-43.626-21.818-54.198-23.090-75.694-5.516-189.358-5.686-189.358-5.686s-140.636 1.29-183.914 5.476c-12.036 2.272-39.068 1.588-59.642 23.3-16.22 16.542-21.498 54.108-21.498 54.108s-5.41 44.108-5.41 88.222z" />
<glyph unicode="&#xe643;" glyph-name="icon_a1_facebook-inv" d="M535.328-63.998v372.424h-125.328v145.142h125.328v107.038c0 124.216 75.864 191.854 186.674 191.854 53.078 0 98.7-3.952 111.996-5.718v-129.814l-76.858-0.034c-60.264 0-71.932-28.636-71.932-70.66v-92.666h143.726l-18.716-145.142h-125.010v-372.426l-149.88 0.002z" />
<glyph unicode="&#xe644;" glyph-name="icon_a1_googleplus-inv" d="M820.012 501.654v0.416h-81.472v83.044h-47.69v-83.044h-81.986v-46.344h0.512v-1.762h81.474v-81.474h47.69v81.474h83.46v47.69zM501.458 407.614l-26.276 21.624c-3.79 3.794-7.7 8.216-11.72 13.28-4.736 5.312-7.102 12.010-7.102 20.106 0 8.346 2.31 15.682 6.924 22.006 3.922 6.072 8.188 11.504 12.806 16.312 8.076 7.078 15.692 14.038 22.846 20.866 6.46 6.832 12.576 14.288 18.35 22.386 11.772 16.692 17.888 38.946 18.35 66.77 0 15.178-1.706 28.454-5.108 39.838-4.138 11.38-8.878 21.244-14.226 29.588-5.596 8.852-11.318 16.314-17.152 22.386-6.080 5.816-11.554 10.244-16.418 13.278h47.766l47.844 28.038h-154.914c-20.558 0-42.586-2.406-66.082-7.206-23.74-5.568-46.622-17.454-68.644-35.658-32.062-31.112-48.094-65.752-48.094-103.94 0-31.612 11.312-59.302 33.942-83.072 21.618-25.544 53.050-38.568 94.284-39.072 7.792 0 16.086 0.504 24.89 1.518-1.458-4.066-3.036-8.512-4.734-13.344-1.944-4.576-2.912-10.304-2.912-17.164 0-11.446 2.546-21.24 7.646-29.374 4.368-8.394 9.346-16.278 14.932-23.654-18.074-0.506-40.784-2.772-68.13-6.816-27.606-4.796-53.962-14.388-79.054-28.78-22.34-13.37-37.772-28.898-46.298-46.574-8.784-17.672-13.176-33.7-13.176-48.094 0-29.534 13.508-54.904 40.512-76.114 26.756-22.718 67.27-34.33 121.524-34.84 64.812 1.014 114.41 16.568 148.782 46.666 33.144 29.088 49.716 62.474 49.716 100.156-0.472 26.558-6.512 48.056-18.112 64.498-12.306 16.188-26.63 30.976-42.962 44.386zM404.656 496.32c-16.14 0-30.488 4.934-43.038 14.824-12.552 9.88-22.8 21.918-30.736 36.112-16.402 30.41-24.596 59.688-24.596 87.82-0.506 21.282 5.108 40.544 16.844 57.782 13.91 16.472 31.368 24.962 52.36 25.472 15.87-0.51 29.904-5.2 42.114-14.068 11.962-9.378 21.602-21.542 28.928-36.492 15.622-31.176 23.434-62.094 23.434-92.76 0-7.1-0.566-15.844-1.688-26.228-1.872-10.394-6.088-20.528-12.642-30.41-13.598-13.944-30.59-21.294-50.98-22.052zM484.54 208.752c-19.236-15.684-47.106-23.776-83.61-24.286-40.696 0.51-72.76 9.616-96.19 27.32-24.668 17.714-36.994 40.226-36.994 67.544 0 13.916 2.834 25.804 8.508 35.67 4.936 9.362 10.974 17.208 18.13 23.526 7.398 6.068 14.672 10.752 21.826 14.038 7.15 3.040 12.698 5.314 16.648 6.834 16.768 5.060 33.166 8.726 49.202 11 16.278 1.518 26.39 2.026 30.34 1.518 6.658 0 12.452-0.248 17.386-0.758 28.86-20.238 50.066-37.31 63.634-51.23 12.822-14.664 19.24-31.868 19.24-51.602 0-24.28-9.376-44.138-28.12-59.574z" />
<glyph unicode="&#xe645;" glyph-name="icon_a1_twitter-inv" d="M701.822 547.018c0-259.798-260.604-364.362-430.318-250.146 0 0 80.436-10.456 144.782 41.022 0 0-71.588 0-93.304 68.368 0 0 29.76-4.826 45.848 2.412 0 0-75.606 16.086-79.63 98.128 0 0 12.87-14.478 45.848-12.87 0 0-72.388 44.238-31.368 134.322 0 0 79.27-111.526 203.494-104.56-15.28 59.52 26.542 105.366 61.936 116.626 35.39 11.26 80.434 2.414 106.974-26.542 0 0 39.41 9.652 63.542 24.128 0 0-13.672-38.606-45.042-53.888 0 0 24.936 0.804 57.91 15.282 0 0-19.302-28.956-50.672-52.282z" />
<glyph unicode="&#xe646;" glyph-name="icon_a1_wordpress-inv" d="M512 16.504c-238.312 0-431.498 193.186-431.498 431.498s193.186 431.494 431.498 431.494 431.498-193.186 431.498-431.498-193.186-431.494-431.498-431.494zM515.616 420.34l-64.116-187.072h-0.194l-49.652-142.89c3.518-0.978 6.84-1.758 10.362-2.734 0.196 0 0.394 0 0.586 0 30.886-8.21 63.334-12.708 96.762-12.708 16.614 0 32.84 0.978 48.674 3.518 21.894 2.734 43.002 7.426 63.528 13.88 5.080 1.564 10.164 3.322 15.246 5.082-5.476 11.726-17.202 37.724-17.788 38.898l-103.408 284.026zM167.28 597.832c-19.546-44.18-32.84-98.522-32.84-147.584 0-12.312 0.586-24.628 1.758-36.746 13.49-139.182 103.408-256.072 226.946-308.656 5.082-2.15 10.362-4.298 15.638-6.256l-181.796 499.046c-15.634 0.584-18.564-0.394-29.706 0.196zM850.274 607.8c-8.404 18.182-18.378 35.576-29.52 51.996-3.128 4.692-6.646 9.384-9.968 14.074-42.028 56.298-99.304 100.474-165.96 126.276-41.832 16.42-87.572 25.412-135.27 25.412-117.872 0-223.232-54.734-292.040-140.156-12.708-15.638-24.046-32.45-34.208-50.042 27.756-0.196 62.16-0.196 66.072-0.196 35.382 0 89.92 4.302 89.92 4.302 18.374 1.17 20.33-25.61 2.15-27.758 0 0-18.378-2.15-38.706-3.128l122.954-365.54 73.89 221.478-52.386 143.87c-18.378 0.978-35.382 3.128-35.382 3.128-18.378 0.978-16.030 28.93 1.954 27.756 0 0 55.712-4.298 88.94-4.298 35.382 0 89.92 4.298 89.92 4.298 18.182 1.17 20.522-25.608 2.15-27.756 0 0-18.182-2.15-38.51-3.128l121.78-362.804 33.818 112.594c17.008 43.786 25.608 79.952 25.608 108.878 0 41.636-15.054 70.568-27.956 93.048-17.004 27.956-33.034 51.412-33.034 78.974 0 31.078 23.458 60.010 56.688 60.010 1.37 0 2.934 0 4.298 0 51.216 1.37 68.026-49.456 70.178-84.054 0 0 0-0.784 0-1.176 0.78-14.074 0.194-24.434 0.194-36.746 0-34.014-6.45-72.522-25.608-120.804l-76.234-220.5-43.592-128.426c3.518 1.564 6.84 3.128 10.362 4.886 110.836 53.56 191.568 160.29 208.572 286.764 2.542 16.618 3.718 33.618 3.718 50.822 0.002 56.496-12.508 110.056-34.792 157.946z" />
<glyph unicode="&#xe647;" glyph-name="icon_a1_youtube-inv" d="M780.932 558.578c0 0-5.364 38.114-21.818 54.898-20.87 22.028-44.264 22.138-54.99 23.426-76.8 5.596-192.004 5.596-192.004 5.596h-0.242c0 0-115.202 0-192.004-5.596-10.728-1.29-34.114-1.398-54.988-23.426-16.456-16.784-21.812-54.898-21.812-54.898s-5.488-44.756-5.488-89.51v-41.964c0-44.76 5.488-89.51 5.488-89.51s5.356-38.114 21.812-54.898c20.874-22.028 48.302-21.336 60.514-23.64 43.908-4.248 186.6-5.556 186.6-5.556s115.324 0.174 192.122 5.77c10.728 1.29 34.122 1.398 54.99 23.426 16.454 16.784 21.818 54.898 21.818 54.898s5.48 44.75 5.48 89.51v41.964c0.002 44.754-5.478 89.51-5.478 89.51zM453.666 369.662v156.672l146.518-76.692-146.518-79.98z" />
<glyph unicode="&#xe648;" glyph-name="icon_a1_refresh" d="M946.766 452l-146.602 150-146.602-150h87.596c0.022-1.332 0.058-2.662 0.058-4 0-126.87-102.85-229.72-229.72-229.72-65.594 0-124.764 27.496-166.622 71.586l-78.976-80.806c62.256-63.978 149.276-103.736 245.598-103.736 189.254 0 342.676 153.42 342.676 342.676 0 1.338-0.048 2.666-0.064 4h92.658zM281.898 442c-0.052 1.998-0.124 3.99-0.124 6 0 126.87 102.85 229.72 229.72 229.72 66.176 0 125.806-27.994 167.724-72.77l79.002 80.834c-62.33 64.658-149.824 104.892-246.726 104.892-189.254 0-342.676-153.42-342.676-342.676 0-2.008 0.072-4 0.106-6h-91.69l146.602-150 146.602 150h-88.54z" />
<glyph unicode="&#xe649;" glyph-name="icon_a1_share" d="M914.696 587.306h-247.852v22.776l-309.688-154.882v-39.354l309.688-137.638v30.406h247.852v-247.832h-247.852v140.522l-309.688 137.66v-30.35h-247.852v247.774h247.852v-22.638l309.688 154.922v146.546h247.852v-247.912z" />
<glyph unicode="&#xe64a;" glyph-name="icon_a1_pencil" d="M394.81 121.739l-209.16 209.16 460.157 460.157 209.16-209.16-460.157-460.157zM81.058 17.182l292.816 83.652-209.15 209.158zM941.226 746.628l-130.722 130.722c-21.658 21.65-57.94 20.478-81.046-2.612l-62.75-62.742 209.158-209.182 62.742 62.782c23.112 23.076 24.284 59.384 2.618 81.032z" />
<glyph unicode="&#xe64b;" glyph-name="icon_a1_percentage" d="M446.14 547.792c0 12.032-3.66 22.108-10.974 30.234-7.48 8.3-17.314 12.44-29.506 12.44-12.196 0-22.032-4.138-29.512-12.44-7.314-8.126-10.974-18.12-10.974-29.984 0-12.526 3.66-22.85 10.974-30.974 7.48-8.296 17.314-12.434 29.512-12.434 12.192 0 22.026 4.138 29.506 12.434 7.314 8.29 10.974 18.53 10.974 30.724zM616.594 392.452c-12.188 0-22.032-4.142-29.506-12.434-7.314-8.126-10.97-18.044-10.97-29.744 0-12.53 3.656-22.848 10.97-30.974 7.474-8.292 17.316-12.44 29.506-12.44 12.196 0 22.032 4.148 29.508 12.44 7.322 8.292 10.976 18.444 10.976 30.48 0 12.026-3.656 22.112-10.976 30.24-7.476 8.288-17.31 12.432-29.508 12.432zM903.742 448.662l38.266 68.268-57.488 53.096 15.298 76.748-71.082 32.74-9.168 77.718-77.72 9.17-32.736 71.082-76.746-15.306-53.1 57.492-68.264-38.266-68.262 38.264-53.1-57.492-76.748 15.306-32.734-71.082-77.718-9.17-9.168-77.718-71.084-32.74 15.298-76.748-57.486-53.094 38.264-68.268-38.264-68.264 57.488-53.1-15.298-76.75 71.084-32.734 9.168-77.72 77.718-9.166 32.734-71.080 76.748 15.294 53.1-57.478 68.264 38.264 68.264-38.264 53.1 57.478 76.746-15.294 32.736 71.080 77.72 9.166 9.168 77.72 71.082 32.734-15.298 76.75 57.488 53.1-38.27 68.264zM335.67 489.018c-14.63 16.262-21.946 36.094-21.946 59.502 0 22.59 7.316 41.784 21.946 57.556 18.37 19.986 41.702 29.988 69.992 29.988 28.446 0 51.694-10.002 69.744-29.988 14.628-16.262 21.946-35.77 21.946-58.532s-7.318-42.266-21.946-58.526c-17.886-19.996-41.058-29.992-69.502-29.992-28.94 0.002-52.354 9.996-70.234 29.992zM424.194 268.822h-47.312l221.184 359.686h47.064l-220.936-359.686zM686.34 291.25c-17.882-19.994-41.048-29.992-69.498-29.992-28.944 0-52.348 9.998-70.228 29.992-14.636 16.256-21.958 36.096-21.958 59.496 0 22.446 7.322 41.548 21.958 57.31 18.366 19.994 41.692 29.996 69.98 29.996 28.612 0 51.862-10.002 69.744-29.996 14.634-16.088 21.946-35.524 21.946-58.28 0.002-22.768-7.31-42.27-21.944-58.526z" />
</font>
</defs>
</svg>
