<?xml version="1.0" encoding="UTF-8" standalone="no"?>
<!DOCTYPE svg PUBLIC "-//W3C//DTD SVG 1.1//EN" "http://www.w3.org/Graphics/SVG/1.1/DTD/svg11.dtd">
<svg xmlns="http://www.w3.org/2000/svg">
<metadata>
This is a custom SVG webfont generated by Font Squirrel.
Copyright   : 2010 by URW Design  Development
</metadata>
<defs>
<font id="webfontRLy8ZZTQ" horiz-adv-x="1147" vert-adv-y="2048">
<font-face units-per-em="2048" ascent="1536" descent="-512"/>
<missing-glyph horiz-adv-x="573"/>
<glyph unicode=" " horiz-adv-x="573" vert-adv-y="0"/>
<glyph unicode="!" horiz-adv-x="680" vert-adv-y="2457" d="M208 0v276h261v-276h-261zM228 440l-31 1035h280l-31 -1035h-218z"/>
<glyph unicode="&quot;" horiz-adv-x="649" vert-adv-y="2457" d="M90 896v579h176v-579h-176zM383 896v579h176v-579h-176z"/>
<glyph unicode="#" vert-adv-y="2457" d="M210 436h-161l25 181h162l30 216h-161l25 181h162l64 455h205l-64 -455h234l64 455h205l-64 -455h162l-26 -181h-161l-31 -216h162l-26 -181h-161l-61 -436h-206l61 436h-233l-61 -436h-206zM441 617h234l30 216h-233z"/>
<glyph unicode="$" vert-adv-y="2457" d="M52 74v376h202v-222q112 -31 244 -42v485q-93 28 -147 47q-163 56 -227 163q-48 82 -48 200q0 254 204 357q80 40 218 49v156h153v-159q169 -14 356 -69v-354h-201v194q-78 22 -155 30v-413q91 -25 144 -45q286 -104 286 -403q0 -150 -72 -257q-105 -158 -358 -180v-167 h-153v167q-202 14 -446 87zM498 917v370q-189 -23 -189 -181q0 -96 74 -139q43 -26 115 -50zM651 621v-432q87 21 121 51q76 65 76 166q0 104 -76 159q-26 19 -121 56z"/>
<glyph unicode="%" horiz-adv-x="1752" vert-adv-y="2457" d="M444 1506q175 0 286 -123q90 -100 90 -240t-90 -240q-110 -123 -285 -123q-178 0 -288 123q-90 100 -90 244q0 139 90 236q113 123 287 123zM444 1319q-75 0 -121 -51q-45 -50 -45 -123q0 -77 45 -127q46 -51 121 -51t121 51q45 51 45 126q0 74 -45 124q-46 51 -121 51z M326 0l907 1475h193l-906 -1475h-194zM1309 694q176 0 286 -123q90 -99 90 -239t-90 -240q-110 -123 -285 -123q-178 0 -288 123q-90 100 -90 244q0 138 90 235q113 123 287 123zM1309 507q-75 0 -121 -51q-45 -50 -45 -122q0 -77 45 -127q46 -51 121 -51t121 51 q45 51 45 125t-45 124q-46 51 -121 51z"/>
<glyph unicode="&amp;" horiz-adv-x="1360" vert-adv-y="2457" d="M696 804l258 -348q48 132 79 329h222q-36 -195 -61 -278q-40 -131 -100 -236l202 -271h-262l-80 110q-14 -12 -21 -17q-59 -51 -81 -63q-110 -62 -262 -62q-221 0 -346 101q-141 114 -141 310q0 111 54 199q42 70 165 173l93 77q-55 73 -87 124q-71 112 -71 216 q0 143 96 239q97 99 253 99q164 0 264 -105q91 -95 91 -223q0 -130 -131 -256q-46 -46 -134 -118zM578 960q70 55 107 93q65 67 65 126q0 52 -36 90q-40 42 -108 42q-64 0 -103 -39q-37 -38 -37 -92q0 -58 43 -123zM535 670q-88 -72 -118 -103q-71 -75 -71 -165 q0 -102 69 -166q70 -64 194 -64q85 0 148 40q7 4 72 64z"/>
<glyph unicode="'" horiz-adv-x="355" vert-adv-y="2457" d="M89 896v579h176v-579h-176z"/>
<glyph unicode="(" horiz-adv-x="819" vert-adv-y="2457" d="M687 -426h-221q-281 479 -281 955q0 479 281 950h221q-116 -218 -172 -403q-83 -269 -83 -547q0 -299 95 -589q54 -164 160 -366z"/>
<glyph unicode=")" horiz-adv-x="819" vert-adv-y="2457" d="M353 -426h-221q116 222 172 406q83 269 83 549q0 299 -95 586q-55 165 -160 364h221q281 -469 281 -950q0 -477 -281 -955z"/>
<glyph unicode="*" vert-adv-y="2457" d="M138 1120l67 205l267 -95l-2 277h205l-2 -278l266 92l70 -202l-276 -75l188 -234l-178 -127l-171 245l-172 -243l-178 124l190 236z"/>
<glyph unicode="+" vert-adv-y="2457" d="M144 631v210h325v349h210v-349h324v-210h-324v-350h-210v350h-325z"/>
<glyph unicode="," horiz-adv-x="573" vert-adv-y="2457" d="M38 -289l177 568h268l-213 -568h-232z"/>
<glyph unicode="-" horiz-adv-x="715" vert-adv-y="2457" d="M85 463v208h546v-208h-546z"/>
<glyph unicode="." horiz-adv-x="573" vert-adv-y="2457" d="M157 0v279h261v-279h-261z"/>
<glyph unicode="/" horiz-adv-x="696" vert-adv-y="2457" d="M22 -186l498 1670h166l-499 -1670h-165z"/>
<glyph unicode="0" vert-adv-y="2457" d="M573 1504q176 0 301 -116q211 -196 211 -650q0 -319 -107 -513q-139 -254 -405 -254q-289 0 -425 295q-86 185 -86 478q0 313 106 506q140 254 405 254zM574 1292q-149 0 -221 -202q-47 -132 -47 -348q0 -247 57 -384q73 -175 210 -175q149 0 221 202q47 129 47 353 q0 243 -57 379q-73 175 -210 175z"/>
<glyph unicode="1" vert-adv-y="2457" d="M481 207v1034l-304 -128l-64 177l415 185h193v-1268h284v-207h-813v207h289z"/>
<glyph unicode="2" vert-adv-y="2457" d="M52 0q8 121 57 220q80 166 375 453q160 155 210 230q60 90 60 178q0 102 -60 161q-56 55 -148 55q-138 0 -211 -136q-35 -64 -55 -183l-217 46q33 178 98 278q131 202 389 202q180 0 302 -97q148 -118 148 -327q0 -123 -57 -231q-55 -105 -200 -249l-167 -160 q-94 -90 -136 -146q-26 -34 -56 -87h450v230h216v-437h-998z"/>
<glyph unicode="3" vert-adv-y="2457" d="M389 674v182q169 0 248 30q140 54 140 202q0 94 -62 153q-59 57 -158 57q-134 0 -198 -102q-27 -42 -48 -127l-227 44q94 391 482 391q231 0 351 -135q95 -106 95 -265q0 -148 -82 -240q-43 -47 -121 -88q257 -93 257 -360q0 -206 -145 -330q-134 -115 -356 -115 q-265 0 -399 159q-83 100 -107 281l229 27q44 -258 276 -258q109 0 177 59q80 70 80 182q0 167 -179 226q-80 26 -253 27z"/>
<glyph unicode="4" vert-adv-y="2457" d="M683 0v323h-612v218l401 934h251l-413 -955h373v494h227v-494h195v-197h-195v-323h-227z"/>
<glyph unicode="5" vert-adv-y="2457" d="M125 727l53 748h803v-365h-216v157h-372l-30 -392q104 59 215 59q184 0 310 -98q168 -133 168 -381q0 -220 -140 -352q-139 -132 -370 -132q-266 0 -393 168q-73 97 -109 237l214 67q25 -100 75 -162q80 -102 215 -102q124 0 202 85q71 78 71 195q0 115 -71 189 q-73 77 -197 77q-88 0 -165 -39q-39 -20 -94 -64z"/>
<glyph unicode="6" vert-adv-y="2457" d="M346 854q49 42 84 61q83 48 189 48q194 0 319 -135q126 -137 126 -353t-120 -355q-129 -149 -355 -149q-256 0 -386 203q-107 166 -107 476q0 386 133 620t396 234q297 0 411 -326l-219 -56q-31 77 -53 105q-56 68 -142 68q-150 0 -219 -181q-38 -98 -57 -260zM582 754 q-118 0 -183 -84q-58 -75 -58 -198q0 -128 59 -208q61 -84 183 -84q119 0 179 83q58 79 58 203q0 126 -57 204q-62 84 -181 84z"/>
<glyph unicode="7" vert-adv-y="2457" d="M807 1267h-472v-187h-216v395h932v-181l-495 -1294h-267z"/>
<glyph unicode="8" vert-adv-y="2457" d="M314 784q-76 43 -115 94q-67 89 -67 219q0 183 123 296q121 111 319 111q215 0 338 -130q103 -110 103 -277q0 -139 -76 -229q-37 -45 -107 -84q88 -37 151 -110q89 -103 89 -257q0 -199 -138 -324q-134 -122 -361 -122q-242 0 -378 139q-120 122 -120 307q0 163 100 269 q60 65 139 98zM573 1298q-115 0 -172 -68q-45 -55 -45 -143q0 -106 60 -160q57 -52 157 -52q109 0 167 60q51 54 51 149q0 100 -54 156q-56 58 -164 58zM573 672q-130 0 -198 -74q-58 -65 -58 -167q0 -123 72 -188q67 -61 184 -61q128 0 196 71q61 65 61 176q0 113 -68 179 q-68 64 -189 64z"/>
<glyph unicode="9" vert-adv-y="2457" d="M792 658q-48 -40 -84 -60q-83 -46 -191 -46q-180 0 -298 101q-151 130 -151 365q0 209 120 341q132 145 355 145q265 0 394 -201q104 -163 104 -500q0 -333 -81 -541q-113 -291 -446 -291q-229 0 -351 135q-48 54 -87 146l209 94q7 -14 11 -21q36 -69 73 -97 q62 -49 150 -49q187 0 237 193q29 115 36 286zM553 1295q-119 0 -182 -78q-59 -72 -59 -191q0 -117 58 -188q64 -77 184 -77t184 77q58 71 58 185q0 122 -59 194q-63 78 -184 78z"/>
<glyph unicode=":" horiz-adv-x="574" vert-adv-y="2457" d="M157 0v279h261v-279h-261zM157 642v279h261v-279h-261z"/>
<glyph unicode=";" horiz-adv-x="573" vert-adv-y="2457" d="M171 642v279h261v-279h-261zM-5 -289l177 568h268l-213 -568h-232z"/>
<glyph unicode="&lt;" vert-adv-y="2457" d="M380 736l623 -335v-230l-865 488v154l865 488v-230z"/>
<glyph unicode="=" vert-adv-y="2457" d="M144 443v210h859v-210h-859zM144 819v210h859v-210h-859z"/>
<glyph unicode="&gt;" vert-adv-y="2457" d="M766 736l-622 335v230l865 -488v-154l-865 -488v230z"/>
<glyph unicode="?" horiz-adv-x="1032" vert-adv-y="2457" d="M357 0v276h261v-276h-261zM374 442v405q143 1 212 32q130 59 130 202q0 95 -60 154q-60 61 -151 61q-120 0 -178 -102q-29 -51 -41 -156h-224q7 101 24 160q40 140 144 222q113 88 281 88q199 0 324 -120q125 -121 125 -317q0 -174 -108 -282q-90 -91 -254 -118v-229 h-224z"/>
<glyph unicode="@" horiz-adv-x="2217" vert-adv-y="2457" d="M1356 324q-119 -132 -299 -132q-175 0 -285 115q-112 117 -112 311q0 196 112 312q108 111 280 111q138 0 225 -67q18 -14 51 -49l11 110h188v-506q0 -87 22 -119q26 -38 95 -38q110 0 162 99q49 92 49 239q0 294 -199 452q-202 161 -520 161q-394 0 -605 -250 q-168 -199 -168 -492q0 -296 168 -452q215 -199 658 -199q347 0 676 116l70 -182q-137 -49 -233 -73q-235 -58 -515 -58q-337 0 -559 93q-505 211 -505 755q0 378 242 637q283 302 768 302q375 0 632 -177q179 -122 265 -314q64 -143 64 -307q0 -243 -119 -382 q-63 -74 -160 -113q-92 -38 -194 -38q-130 0 -199 51q-41 30 -66 84zM1091 858q-93 0 -148 -66q-54 -65 -54 -176q0 -109 54 -175q55 -66 150 -66q100 0 161 71q56 65 56 167q0 110 -56 174q-62 71 -163 71z"/>
<glyph unicode="A" horiz-adv-x="1468" vert-adv-y="2457" d="M1025 424h-586l-80 -217h146v-207h-514v207h115l496 1268h260l498 -1268h117v-207h-517v207h147zM949 626l-218 601l-216 -601h434z"/>
<glyph unicode="B" horiz-adv-x="1353" vert-adv-y="2457" d="M214 207v1060h-142v208h628q486 0 486 -368q0 -213 -187 -310q108 -33 173 -108q86 -99 86 -252q0 -237 -190 -351q-143 -86 -390 -86h-606v207h142zM455 887h207q279 0 279 189q0 107 -89 157q-63 36 -171 36h-226v-382zM455 206h169q117 0 173 12q207 43 207 228 q0 137 -112 198q-80 44 -214 44h-223v-482z"/>
<glyph unicode="C" horiz-adv-x="1461" vert-adv-y="2457" d="M1229 384l150 -173q-99 -109 -210 -163q-161 -79 -376 -79q-357 0 -540 216q-170 200 -170 539q0 355 191 571q188 211 501 211q203 0 358 -98v67h202v-449h-216v20q0 85 -55 143q-94 99 -276 99q-218 0 -338 -163q-113 -154 -113 -397q0 -247 125 -397 q116 -139 337 -139q166 0 295 78q48 30 135 114z"/>
<glyph unicode="D" horiz-adv-x="1508" vert-adv-y="2457" d="M214 207v1060h-142v208h552q228 0 380 -60q217 -85 327 -279q94 -166 94 -399q0 -365 -229 -562q-132 -114 -318 -152q-112 -23 -254 -23h-552v207h142zM464 207h149q243 0 389 119q169 139 169 411q0 271 -169 410q-145 120 -389 120h-149v-1060z"/>
<glyph unicode="E" horiz-adv-x="1249" vert-adv-y="2457" d="M214 207v1061h-142v207h1097v-383h-216v176h-489v-394h464v-207h-464v-460h494v222h216v-429h-1102v207h142z"/>
<glyph unicode="F" horiz-adv-x="1192" vert-adv-y="2457" d="M214 207v1061h-142v207h1096v-383h-216v176h-488v-415h464v-207h-464v-439h186v-207h-578v207h142z"/>
<glyph unicode="G" horiz-adv-x="1648" vert-adv-y="2457" d="M822 539v207h671v-684q-268 -93 -622 -93q-264 0 -434 91q-176 95 -267 272q-87 170 -87 398q0 374 244 595q198 180 519 180q227 0 397 -97v67h202v-449h-216v20q0 84 -57 140q-103 102 -307 102q-251 0 -391 -155q-137 -154 -137 -400q0 -266 152 -414 q136 -133 394 -133q184 0 382 53v300h-443z"/>
<glyph unicode="H" horiz-adv-x="1490" vert-adv-y="2457" d="M214 207v1060h-142v208h546v-208h-154v-390h562v390h-156v208h548v-208h-142v-1060h142v-207h-548v207h156v463h-562v-463h154v-207h-546v207h142z"/>
<glyph unicode="I" horiz-adv-x="679" vert-adv-y="2457" d="M215 207v1060h-142v208h533v-208h-141v-1060h141v-207h-533v207h142z"/>
<glyph unicode="J" horiz-adv-x="677" vert-adv-y="2457" d="M218 1267h-153v208h545v-208h-142v-1092q0 -192 -30 -282q-57 -171 -239 -215q-59 -14 -172 -18v207q61 4 90 14q63 20 84 94q17 57 17 164v1128z"/>
<glyph unicode="K" horiz-adv-x="1312" vert-adv-y="2457" d="M214 207v1060h-142v208h518v-208h-126v-462l414 462h-117v208h498v-208h-103l-432 -475l439 -585h130v-207h-532v207h114l-411 550v-550h114v-207h-506v207h142z"/>
<glyph unicode="L" horiz-adv-x="1167" vert-adv-y="2457" d="M214 207v1060h-142v208h561v-208h-169v-1060h430v237h216v-444h-1038v207h142z"/>
<glyph unicode="M" horiz-adv-x="1827" vert-adv-y="2457" d="M173 207l82 1060h-143v208h486l258 -853q18 -60 59 -251q38 184 57 249l259 855h484v-208h-143l82 -1060h113v-207h-486v207h132l-46 736q-4 62 -9 260q-46 -183 -68 -256l-283 -947h-186l-285 954q-13 42 -66 249q-5 -187 -9 -251l-47 -745h133v-207h-487v207h113z"/>
<glyph unicode="N" horiz-adv-x="1470" vert-adv-y="2457" d="M214 207v1060h-142v208h435l444 -816q21 -39 89 -193q-6 142 -6 213v588h-156v208h526v-208h-142v-1293h-193l-550 1020q-7 12 -84 184q7 -165 7 -188v-783h152v-207h-522v207h142z"/>
<glyph unicode="O" horiz-adv-x="1715" vert-adv-y="2457" d="M858 1506q247 0 443 -132q189 -126 274 -336q57 -141 57 -300q0 -283 -169 -491q-117 -143 -289 -216q-148 -62 -314 -62q-251 0 -447 132q-188 126 -273 337q-57 141 -57 309q0 179 79 342q101 207 313 323q173 94 383 94zM858 1289q-232 0 -382 -165 q-139 -152 -139 -379q0 -240 139 -394q149 -165 383 -165q231 0 380 165q139 154 139 387q0 235 -139 386q-151 165 -381 165z"/>
<glyph unicode="P" horiz-adv-x="1268" vert-adv-y="2457" d="M214 207v1060h-142v208h528q174 0 275 -23q165 -38 256 -168q80 -115 80 -278q0 -459 -610 -459h-137v-340h185v-207h-577v207h142zM464 748h126q367 0 367 264q0 255 -356 255h-137v-519z"/>
<glyph unicode="Q" horiz-adv-x="1715" vert-adv-y="2457" d="M470 -343l-60 204q98 59 145 79q69 29 158 43q-205 36 -358 162q-144 119 -215 294q-57 141 -57 300q0 282 169 490q117 142 289 215q148 62 316 62q249 0 445 -131q188 -126 273 -337q57 -141 57 -299q0 -284 -169 -491q-137 -167 -345 -237q-87 -30 -215 -39 q67 -16 198 -70q139 -57 202 -57q69 0 166 46l52 -206q-125 -57 -236 -57q-81 0 -176 34q-41 14 -168 65q-105 43 -181 43q-124 0 -290 -113zM858 1289q-232 0 -382 -164q-139 -153 -139 -379q0 -240 139 -394q149 -165 383 -165q231 0 380 165q139 154 139 387 q0 234 -139 386q-151 164 -381 164z"/>
<glyph unicode="R" horiz-adv-x="1310" vert-adv-y="2457" d="M214 207v1060h-142v208h588q149 0 232 -16q143 -28 224 -143q78 -110 78 -264q0 -174 -107 -277q-34 -34 -138 -90q60 -33 92 -84q27 -45 59 -144l79 -250h132v-207h-348l-75 291q-29 112 -52 161q-42 93 -102 120t-179 27h-91v-392h163v-207h-555v207h142zM464 801h142 q173 0 244 47q90 59 90 191t-92 188q-65 40 -217 40h-167v-466z"/>
<glyph unicode="S" horiz-adv-x="1245" vert-adv-y="2457" d="M109 0v466h216v-33q0 -94 60 -156q88 -91 260 -91q137 0 210 62q72 61 72 160q0 102 -91 163q-62 41 -288 104q-162 45 -227 76q-204 98 -204 331q0 199 125 312q123 112 325 112q139 0 237 -52q30 -16 69 -46v67h201v-449h-216v20q0 88 -44 148q-69 94 -229 94 q-101 0 -162 -48q-63 -50 -63 -135q0 -92 83 -143q57 -35 249 -83q175 -44 250 -82q230 -119 230 -374q0 -202 -124 -323q-136 -131 -389 -131q-195 0 -348 98v-67h-202z"/>
<glyph unicode="T" horiz-adv-x="1272" vert-adv-y="2457" d="M512 207v1061h-256v-201h-216v408h1192v-408h-216v201h-254v-1061h208v-207h-666v207h208z"/>
<glyph unicode="U" horiz-adv-x="1450" vert-adv-y="2457" d="M62 1267v208h547v-208h-155v-686q0 -192 45 -275q61 -114 226 -114t226 114q45 83 45 275v686h-155v208h547v-208h-142v-641q0 -211 -23 -316q-37 -164 -163 -252q-127 -89 -335 -89q-312 0 -438 196q-59 93 -76 243q-7 69 -7 218v641h-142z"/>
<glyph unicode="V" horiz-adv-x="1300" vert-adv-y="2457" d="M5 1267v208h536v-208h-149l210 -641q42 -129 62 -226q25 126 56 227l196 640h-152v208h533v-208h-131l-414 -1299h-173l-446 1299h-128z"/>
<glyph unicode="W" horiz-adv-x="1967" vert-adv-y="2457" d="M18 1267v208h537v-208h-153l188 -641q21 -70 48 -184q37 149 44 172l246 870h137l254 -870q22 -76 41 -172q24 111 52 207l182 618h-142v208h498v-208h-118l-393 -1298h-165l-239 832q-20 69 -40 187q-23 -115 -42 -181l-242 -838h-167l-399 1298h-127z"/>
<glyph unicode="X" horiz-adv-x="1337" vert-adv-y="2457" d="M160 207l362 547l-338 513h-139v208h548v-208h-124l212 -344l200 344h-119v208h530v-208h-138l-344 -517l357 -543h145v-207h-557v207h126l-227 378l-223 -378h122v-207h-546v207h153z"/>
<glyph unicode="Y" horiz-adv-x="1253" vert-adv-y="2457" d="M497 207v465l-382 595h-111v208h529v-208h-125l229 -385l227 385h-123v208h501v-208h-118l-377 -599v-461h187v-207h-624v207h187z"/>
<glyph unicode="Z" horiz-adv-x="1149" vert-adv-y="2457" d="M22 0v193l731 1075h-461v-201h-216v408h1001v-162l-747 -1106h528v226h216v-433h-1052z"/>
<glyph unicode="[" horiz-adv-x="819" vert-adv-y="2457" d="M252 -422v1897h434v-181h-187v-1525h187v-191h-434z"/>
<glyph unicode="\" horiz-adv-x="696" vert-adv-y="2457" d="M501 -186l-498 1670h166l498 -1670h-166z"/>
<glyph unicode="]" horiz-adv-x="819" vert-adv-y="2457" d="M133 -422v191h187v1525h-187v181h434v-1897h-434z"/>
<glyph unicode="^" vert-adv-y="2457" d="M573 1288l-297 -394h-237l429 581h211l429 -581h-237z"/>
<glyph unicode="_" horiz-adv-x="1024" vert-adv-y="2457" d="M-11 -422v207h1046v-207h-1046z"/>
<glyph unicode="`" horiz-adv-x="1024" vert-adv-y="2457" d="M502 1118l-289 350h250l201 -350h-162z"/>
<glyph unicode="a" horiz-adv-x="1192" vert-adv-y="2457" d="M827 0v117q-137 -146 -330 -146q-203 0 -331 141q-130 143 -130 384q0 240 130 384q128 141 330 141q143 0 241 -68q26 -18 69 -60v127l240 1v-814h142v-207h-361zM537 814q-119 0 -189 -89q-68 -85 -68 -229q0 -140 63 -224q71 -94 194 -94q125 0 200 94q69 87 69 220 q0 143 -69 228q-77 94 -200 94z"/>
<glyph unicode="b" horiz-adv-x="1230" vert-adv-y="2457" d="M148 0v1267h-143v208h383v-581q43 40 68 58q99 69 240 69q204 0 331 -141q130 -144 130 -384t-130 -384q-127 -141 -333 -141q-144 0 -249 74q-37 26 -81 74l-3 -119h-213zM656 814q-124 0 -200 -94q-68 -86 -68 -220q0 -141 68 -227q75 -95 200 -95q123 0 194 94 q63 85 63 224q0 146 -68 229q-72 89 -189 89z"/>
<glyph unicode="c" horiz-adv-x="1033" vert-adv-y="2457" d="M891 300l124 -163q-168 -167 -449 -167q-231 0 -356 123q-140 137 -140 391q0 238 118 385q122 152 335 152q139 0 244 -77v48h182v-360h-202v26q0 74 -36 107q-54 49 -146 49q-125 0 -189 -90q-62 -87 -62 -230q0 -149 73 -234q70 -81 194 -81q122 0 216 51q41 22 94 70 z"/>
<glyph unicode="d" horiz-adv-x="1280" vert-adv-y="2457" d="M861 0v117q-137 -146 -330 -146q-203 0 -331 141q-130 143 -130 384q0 240 130 384q128 141 330 141q143 0 241 -68q26 -18 69 -60v374h-153v208h393v-1268h142v-207h-361zM571 814q-119 0 -189 -89q-68 -85 -68 -229q0 -140 63 -224q71 -94 194 -94q125 0 200 94 q69 87 69 220q0 143 -69 228q-77 94 -200 94z"/>
<glyph unicode="e" horiz-adv-x="1158" vert-adv-y="2457" d="M1091 418h-772q16 -85 48 -131q40 -56 97 -83q54 -26 143 -26q122 0 237 48q46 19 123 64l111 -179q-98 -60 -172 -88q-147 -54 -302 -54q-247 0 -391 143q-146 145 -146 384q0 241 145 386q139 139 373 139q209 0 341 -120q120 -109 151 -294q13 -78 14 -189zM836 603 q-44 218 -256 218q-206 0 -257 -218h513z"/>
<glyph unicode="f" horiz-adv-x="755" vert-adv-y="2457" d="M209 207v578h-149v207h149v84q0 200 84 295q93 104 289 104q87 0 177 -19v-198q-79 16 -149 16q-114 0 -145 -73q-16 -40 -16 -144v-65h243v-207h-243v-578h216v-207h-605v207h149z"/>
<glyph unicode="g" horiz-adv-x="1275" vert-adv-y="2457" d="M840 117q-45 -40 -72 -58q-98 -64 -235 -64q-204 0 -332 136q-130 137 -130 369q0 230 125 373q128 148 340 148q148 0 251 -76q33 -24 74 -70v117h365v-207h-146v-688q0 -166 -24 -257q-76 -291 -476 -291q-245 0 -345 93q-78 73 -84 236h224q9 -63 39 -90 q45 -41 169 -41q168 0 223 108q34 68 34 217v45zM572 814q-119 0 -189 -88q-68 -85 -68 -225q0 -133 63 -211q72 -88 194 -88q124 0 200 88q68 79 68 205q0 140 -68 225q-76 94 -200 94z"/>
<glyph unicode="h" horiz-adv-x="1289" vert-adv-y="2457" d="M203 207v1060h-143v208h383v-602q73 61 125 91q100 57 214 57q188 0 260 -132q53 -97 53 -316v-366h140v-207h-504v207h124v378q0 97 -19 144q-30 76 -119 76q-80 0 -172 -64q-26 -19 -102 -92v-442h131v-207h-514v207h143z"/>
<glyph unicode="i" horiz-adv-x="640" vert-adv-y="2457" d="M217 207v578h-143v207h383v-785h142v-207h-537v207h155zM211 1213v261h252v-261h-252z"/>
<glyph unicode="j" horiz-adv-x="629" vert-adv-y="2457" d="M78 785v207h383v-984q0 -161 -28 -236q-53 -142 -222 -178q-49 -11 -152 -16v208q89 5 121 36q41 41 41 161v802h-143zM214 1213v261h252v-261h-252z"/>
<glyph unicode="k" vert-adv-y="2457" d="M201 207v1060h-143v208h383v-908l273 239h-113v186h480v-204h-105l-268 -239l327 -342h102v-207h-464v193h88l-320 346v-346h98v-193h-481v207h143z"/>
<glyph unicode="l" horiz-adv-x="639" vert-adv-y="2457" d="M216 207v1060h-143v208h383v-1268h142v-207h-537v207h155z"/>
<glyph unicode="m" horiz-adv-x="1866" vert-adv-y="2457" d="M208 207v578h-143v207h377v-124q91 76 126 97q94 56 197 56q137 0 206 -77q27 -29 55 -98q94 82 140 111q103 64 213 64q177 0 243 -132q50 -98 50 -316v-366h140v-207h-493v207h113v378q0 97 -16 145q-26 76 -102 76q-73 0 -154 -62q-28 -21 -100 -95v-442h130v-207 h-484v207h114v378q0 96 -16 145q-26 76 -103 76q-74 0 -154 -62q-34 -26 -99 -96v-441h120v-207h-503v207h143z"/>
<glyph unicode="n" horiz-adv-x="1295" vert-adv-y="2457" d="M208 207v578h-143v207h383v-124q95 75 133 97q100 56 210 56q187 0 258 -132q53 -96 53 -316v-366h140v-207h-504v207h124v378q0 97 -19 145q-30 76 -119 76q-81 0 -169 -62q-40 -29 -107 -96v-441h132v-207h-515v207h143z"/>
<glyph unicode="o" horiz-adv-x="1214" vert-adv-y="2457" d="M607 1021q237 0 385 -141q152 -145 152 -384t-152 -384q-147 -141 -384 -141q-239 0 -386 141q-152 145 -152 391q0 153 70 274q76 131 224 197q108 47 243 47zM607 814q-139 0 -221 -94q-72 -84 -72 -220q0 -144 72 -227q82 -95 222 -95q138 0 219 95q73 83 73 223 q0 141 -73 224q-83 94 -220 94z"/>
<glyph unicode="p" horiz-adv-x="1280" vert-adv-y="2457" d="M200 -214v999h-142v207h359v-118q43 47 80 72q105 75 250 75q205 0 333 -141q130 -143 130 -384q0 -240 -130 -384q-127 -141 -329 -141q-176 0 -311 128v-313h171v-208h-553v208h142zM709 814q-124 0 -200 -94q-69 -86 -69 -220q0 -141 69 -227q75 -95 200 -95 q123 0 194 94q63 85 63 225q0 145 -68 228q-72 89 -189 89z"/>
<glyph unicode="q" horiz-adv-x="1281" vert-adv-y="2457" d="M840 -214v313q-48 -45 -74 -62q-97 -66 -237 -66q-202 0 -329 141q-130 144 -130 384q0 241 130 384q128 141 333 141q199 0 328 -146v117h361v-207h-142v-999h142v-208h-553v208h171zM571 814q-119 0 -189 -89q-68 -85 -68 -229q0 -139 63 -224q71 -94 194 -94 q125 0 200 95q69 86 69 219q0 143 -69 228q-76 94 -200 94z"/>
<glyph unicode="r" horiz-adv-x="836" vert-adv-y="2457" d="M208 207v578h-143v207h373v-130q91 86 148 116q84 43 188 43h35v-230h-44q-74 0 -118 -14q-67 -21 -131 -80q-15 -14 -68 -72v-418h151v-207h-534v207h143z"/>
<glyph unicode="s" horiz-adv-x="1017" vert-adv-y="2457" d="M84 0v346h201v-35q0 -48 18 -72q55 -76 235 -76q186 0 186 118q0 47 -49 75q-27 16 -204 47q-219 39 -302 105q-88 70 -88 202q0 143 99 229q95 82 261 82q105 0 182 -33q29 -13 76 -43v47h181v-314h-201v14q0 58 -45 91q-63 46 -165 46q-76 0 -115 -27q-38 -27 -38 -75 t63 -76q32 -14 179 -43q224 -44 294 -97q100 -76 100 -224q0 -150 -107 -235q-100 -81 -291 -81q-161 0 -289 76v-47h-181z"/>
<glyph unicode="t" horiz-adv-x="739" vert-adv-y="2457" d="M199 785h-149v207h149v334h240v-334h242v-207h-242v-409q0 -100 24 -134q25 -35 94 -35h130v-207h-133q-163 0 -249 63q-106 79 -106 268v454z"/>
<glyph unicode="u" horiz-adv-x="1239" vert-adv-y="2457" d="M193 785h-140v207h380v-585q0 -94 13 -137q21 -71 96 -71q76 0 159 57q36 25 102 88v441h-132v207h371v-785h142v-207h-381v123q-94 -70 -128 -88q-96 -51 -199 -51q-172 0 -236 128q-47 95 -47 307v366z"/>
<glyph unicode="v" horiz-adv-x="1121" vert-adv-y="2457" d="M126 785h-120v207h487v-207h-115l134 -358q20 -52 51 -167q41 136 53 168l135 357h-116v207h480v-207h-119l-336 -813h-212z"/>
<glyph unicode="w" horiz-adv-x="1658" vert-adv-y="2457" d="M132 785h-109v207h468v-207h-120l113 -317q24 -69 47 -153q27 91 57 168l199 509h93l198 -530q24 -65 49 -147q30 97 47 141l125 329h-130v207h465v-207h-103l-326 -811h-158l-176 486q-25 68 -44 141q-17 -71 -42 -136l-181 -491h-155z"/>
<glyph unicode="x" horiz-adv-x="1139" vert-adv-y="2457" d="M159 207l261 313l-224 265h-137v207h481v-179h-89l132 -176l137 176h-88v179h459v-207h-133l-250 -275l255 -303h143v-207h-505v192h98l-150 202l-151 -202h96v-192h-460v207h125z"/>
<glyph unicode="y" horiz-adv-x="1112" vert-adv-y="2457" d="M106 785h-92v207h486v-207h-139l151 -350q17 -39 53 -142q25 70 67 168l140 324h-142v207h489v-207h-102l-400 -867q-50 -106 -88 -172q-74 -126 -205 -154q-61 -13 -171 -14v208q95 0 131 19q54 29 105 141l48 106z"/>
<glyph unicode="z" horiz-adv-x="967" vert-adv-y="2457" d="M32 0v206l536 579h-281v-126h-208v333h799v-181l-553 -604h362v159h208v-366h-863z"/>
<glyph unicode="{" horiz-adv-x="819" vert-adv-y="2457" d="M352 570q92 -40 121 -104q32 -71 32 -241v-253q0 -138 42 -178q39 -37 139 -37h61v-179h-92q-148 0 -208 17q-113 31 -151 122q-29 69 -29 225v268q0 161 -50 218q-31 37 -83 46q-17 3 -55 5v182q69 4 101 20q55 28 73 96q14 56 14 153v180q0 153 26 221q37 99 162 129 q60 15 200 15h92v-180h-62q-102 0 -141 -39q-39 -40 -39 -176v-183q0 -153 -32 -223q-30 -66 -121 -104z"/>
<glyph unicode="|" horiz-adv-x="1024" vert-adv-y="2457" d="M388 -439v2007h246v-2007h-246z"/>
<glyph unicode="}" horiz-adv-x="819" vert-adv-y="2457" d="M467 570q-90 38 -121 104q-32 68 -32 223v183q0 137 -39 176t-140 39h-63v180h92q154 0 218 -20q118 -35 150 -140q20 -66 20 -205v-180q0 -150 38 -206q29 -42 83 -55q21 -6 67 -8v-182q-60 -4 -87 -14q-60 -23 -82 -90q-19 -58 -19 -165v-268q0 -172 -37 -242 q-45 -84 -159 -109q-58 -13 -192 -13h-92v179h62q100 0 138 37q42 40 42 178v253q0 171 32 241q29 64 121 104z"/>
<glyph unicode="~" vert-adv-y="2457" d="M194 564l-127 159q66 75 115 115q98 78 201 78q100 0 205 -62q87 -51 93 -54q36 -19 79 -19q85 0 194 128l126 -157q-66 -77 -119 -119q-98 -76 -196 -76q-73 0 -162 41q-19 8 -132 69q-41 22 -87 22q-61 0 -127 -60q-24 -22 -63 -65z"/>
<glyph unicode=" " horiz-adv-x="573" vert-adv-y="2457"/>
<glyph unicode="¡" horiz-adv-x="680" vert-adv-y="2457" d="M197 -184l31 1176h218l31 -1176h-280zM208 1143v276h261v-276h-261z"/>
<glyph unicode="¢" vert-adv-y="2457" d="M539 -29v327q-140 14 -234 76q-200 132 -200 433q0 325 232 465q84 50 202 67v278h153v-274q146 -6 336 -45v-312h-193v134q-11 2 -73 17q-15 4 -70 8v-647q80 13 144 43q51 24 120 73l111 -179q-108 -75 -200 -106q-78 -26 -175 -33v-325h-153zM539 506v627 q-205 -70 -205 -315q0 -159 85 -244q48 -48 120 -68z"/>
<glyph unicode="£" vert-adv-y="2457" d="M60 638v181h168q-36 150 -36 267q0 205 121 315q114 104 310 104q195 0 419 -72v-372h-216v191q-105 41 -202 41q-88 0 -142 -50q-56 -53 -56 -155q0 -92 45 -269h279v-181h-248l2 -17q11 -98 11 -142q0 -104 -42 -210q142 -75 237 -75q112 0 175 90q24 36 45 120 l224 -34q-32 -161 -97 -247q-112 -151 -322 -151q-187 0 -365 120q-57 -57 -122 -84q-74 -32 -188 -34v238q104 24 151 78q60 71 60 221q0 43 -13 127h-198z"/>
<glyph unicode="¤" vert-adv-y="2457" d="M162 278l-119 123l185 183q-67 101 -67 226q0 120 66 222l-184 183l119 123l185 -185q105 69 227 69q124 0 226 -68l182 184l123 -122l-185 -184q66 -104 66 -222q0 -122 -67 -226l186 -184l-123 -122l-184 186q-107 -68 -225 -68q-116 0 -224 68zM574 1038 q-97 0 -165 -70q-64 -66 -64 -156q0 -96 64 -162q68 -70 165 -70q96 0 164 70q64 67 64 159q0 93 -64 159q-69 70 -164 70z"/>
<glyph unicode="¥" vert-adv-y="2457" d="M447 193v181h-349v154h349v105h-349v154h268l-301 480h-111v208h529v-208h-125l229 -385l227 385h-123v208h501v-208h-117l-296 -480h270v-154h-352v-105h352v-154h-352v-181h187v-193h-624v193h187z"/>
<glyph unicode="¦" horiz-adv-x="653" vert-adv-y="2457" d="M216 843v620h222v-620h-222zM216 0v619h222v-619h-222z"/>
<glyph unicode="§" vert-adv-y="2457" d="M219 -216v356h190v-164h104q160 0 160 95q0 63 -114 161l-253 217q-80 69 -118 117q-62 80 -62 172q0 192 235 257q-84 114 -84 221q0 149 155 214q106 45 338 45h163v-359h-188v169h-58q-188 0 -188 -84q0 -40 35 -81q36 -42 93 -93l253 -225q185 -164 185 -320 q0 -128 -105 -204q-48 -34 -115 -53q70 -97 70 -183q0 -138 -125 -204q-100 -54 -278 -54h-293zM752 620l-174 153q-45 39 -65 53q-42 28 -79 28q-44 0 -72 -31q-26 -28 -26 -66q0 -41 35 -81q15 -17 58 -56l160 -145q104 -94 172 -94q46 0 70 32q20 27 20 61q0 60 -99 146z "/>
<glyph unicode="¨" horiz-adv-x="1024" vert-adv-y="2457" d="M222 1156v234h217v-234h-217zM585 1156v234h217v-234h-217z"/>
<glyph unicode="©" horiz-adv-x="1742" vert-adv-y="2457" d="M1172 1075v-226h-154v105q-67 22 -122 22q-107 0 -166 -72q-57 -69 -57 -175q0 -111 62 -177q58 -62 156 -62q122 0 233 81l88 -112q-59 -47 -110 -72q-92 -44 -209 -44q-184 0 -292 111q-102 105 -102 275q0 178 114 288q106 104 286 104q129 0 273 -46zM872 1535 q330 0 560 -236q223 -229 223 -561t-223 -562q-229 -236 -559 -236q-334 0 -562 236q-223 230 -223 572q0 212 105 396q113 196 316 304q166 87 363 87zM872 1352q-255 0 -428 -185q-159 -170 -159 -421q0 -267 159 -438q172 -185 429 -185q254 0 426 185q159 171 159 430 q0 263 -159 429q-177 185 -427 185z"/>
<glyph unicode="ª" horiz-adv-x="797" vert-adv-y="2457" d="M503 825v64q-44 -44 -88 -60q-58 -21 -128 -21q-234 0 -234 207q0 123 88 172q59 34 191 34q29 0 140 -4v32q0 57 -32 79q-31 22 -106 22q-84 0 -178 -34l-51 152q124 38 243 38q214 0 281 -108q37 -61 37 -188v-225h84v-160h-247zM472 1087q-82 5 -115 5q-64 0 -85 -16 q-25 -17 -25 -57q0 -71 87 -71q79 0 120 45q18 20 18 54v40z"/>
<glyph unicode="«" horiz-adv-x="923" vert-adv-y="2457" d="M315 475l171 -338l-177 -74l-200 412l200 414l177 -78zM642 475l171 -338l-177 -74l-199 412l200 414l176 -78z"/>
<glyph unicode="¬" vert-adv-y="2457" d="M144 639v202h807v-560h-211v358h-596z"/>
<glyph unicode="­" horiz-adv-x="715" vert-adv-y="2457" d="M85 463v208h546v-208h-546z"/>
<glyph unicode="®" horiz-adv-x="1297" vert-adv-y="2457" d="M460 1039v324h-54v112h260q106 0 152 -27q76 -44 76 -138q0 -86 -75 -129q21 -22 38 -68l26 -74h57v-112h-173l-32 116q-15 52 -32 72q-16 19 -74 19h-31v-95h64v-112h-256v112h54zM598 1237h47q61 0 84 15q25 16 25 53q0 34 -25 47q-20 11 -74 11h-57v-126zM649 1782 q242 0 411 -173q164 -169 164 -414q0 -243 -164 -413q-168 -173 -410 -173q-245 0 -413 173q-164 170 -164 421q0 156 78 292q82 144 232 223q121 64 266 64zM649 1644q-186 0 -312 -134q-116 -125 -116 -308q0 -196 116 -321q125 -134 313 -134q185 0 310 134 q116 125 116 314q0 193 -116 315q-129 134 -311 134z"/>
<glyph unicode="¯" horiz-adv-x="1024" vert-adv-y="2457" d="M230 1190v168h564v-168h-564z"/>
<glyph unicode="°" horiz-adv-x="766" vert-adv-y="2457" d="M383 1395q-91 0 -139 -66q-31 -43 -31 -111q0 -72 31 -115q47 -66 140 -66q92 0 139 66q31 43 31 113q0 69 -31 113q-47 66 -140 66zM384 1542q161 0 254 -101q82 -89 82 -225t-82 -225q-92 -101 -253 -101q-164 0 -256 101q-82 89 -82 229q0 134 82 221q94 101 255 101z "/>
<glyph unicode="±" vert-adv-y="2457" d="M144 720v210h325v349h210v-349h324v-210h-324v-350h-210v350h-325zM144 0v210h859v-210h-859z"/>
<glyph unicode="²" horiz-adv-x="737" vert-adv-y="2457" d="M27 819q6 100 28 145q49 102 216 248q113 100 141 134q41 50 41 96q0 39 -27 65q-29 29 -77 29q-75 0 -111 -85q-14 -33 -27 -96l-182 34q27 130 68 188q83 118 256 118q122 0 201 -53q96 -64 96 -194q0 -119 -102 -229q-38 -42 -162 -149q-51 -44 -94 -92h236v131h167 v-290h-668z"/>
<glyph unicode="³" horiz-adv-x="737" vert-adv-y="2457" d="M251 1192v145q24 -1 34 -1q77 0 122 22q61 29 61 89q0 37 -25 61q-31 30 -87 30q-69 0 -105 -48q-13 -19 -30 -68l-178 29q33 104 83 159q79 86 237 86q156 0 234 -78q61 -61 61 -161q0 -124 -116 -183q149 -63 149 -205q0 -129 -93 -200q-86 -66 -235 -66 q-176 0 -260 87q-61 63 -71 183l177 19q5 -50 35 -83q42 -46 117 -46q60 0 95 28q38 29 38 81q0 88 -108 110q-46 9 -135 10z"/>
<glyph unicode="´" horiz-adv-x="1024" vert-adv-y="2457" d="M361 1118l201 350h250l-289 -350h-162z"/>
<glyph unicode="¶" horiz-adv-x="1343" vert-adv-y="2457" d="M453 -214v839q-158 15 -250 86q-151 115 -151 339q0 199 121 315q73 69 176 95q69 18 192 18h651v-208h-118v-1484h170v-208h-933v208h142zM664 -214h199v1484h-199v-1484z"/>
<glyph unicode="·" horiz-adv-x="573" vert-adv-y="2457" d="M157 427v279h261v-279h-261z"/>
<glyph unicode="¸" horiz-adv-x="1024" vert-adv-y="2457" d="M471 0h158l-47 -87q81 -8 119 -29q91 -48 91 -161q0 -118 -90 -174q-69 -43 -188 -43q-127 0 -260 39v178q160 -62 258 -62q92 0 92 63q0 41 -44 53q-23 6 -66 6q-13 0 -78 -6v115z"/>
<glyph unicode="¹" horiz-adv-x="737" vert-adv-y="2457" d="M291 978v513l-140 -59l-58 145l237 102h155v-701h136v-159h-469v159h139z"/>
<glyph unicode="º" horiz-adv-x="797" vert-adv-y="2457" d="M399 1506q164 0 261 -90q102 -95 102 -258q0 -162 -102 -258q-97 -90 -260 -90q-166 0 -263 90q-102 96 -102 263q0 159 102 253q98 90 262 90zM399 1347q-84 0 -128 -58q-40 -51 -40 -129q0 -81 40 -133q43 -58 128 -58q84 0 128 58q39 52 39 131q0 80 -39 131 q-45 58 -128 58z"/>
<glyph unicode="»" horiz-adv-x="924" vert-adv-y="2457" d="M607 475l-171 336l175 78l203 -414l-203 -413l-175 75zM280 475l-171 336l177 78l200 -414l-200 -412l-177 74z"/>
<glyph unicode="¼" horiz-adv-x="1761" vert-adv-y="2457" d="M294 774v513l-140 -59l-58 145l237 102h155v-701h136v-160h-469v160h139zM401 0l743 1475h193l-743 -1475h-193zM1387 0v179h-394v155l249 526h201l-252 -527h196v249h174v-249h117v-154h-117v-179h-174z"/>
<glyph unicode="½" horiz-adv-x="1761" vert-adv-y="2457" d="M269 774v513l-140 -59l-58 145l237 102h155v-701h136v-160h-469v160h139zM374 0l743 1475h193l-743 -1475h-193zM1013 0q6 100 28 145q48 101 215 248q114 100 142 134q41 50 41 96q0 39 -27 65q-29 29 -77 29q-75 0 -112 -85q-14 -33 -26 -96l-182 34q26 130 68 189 q83 117 256 117q121 0 201 -53q96 -64 96 -195q0 -118 -102 -228q-36 -40 -162 -149q-52 -45 -94 -92h236v131h167v-290h-668z"/>
<glyph unicode="¾" horiz-adv-x="1761" vert-adv-y="2457" d="M261 987v146q22 -1 34 -1q77 0 122 22q61 29 61 89q0 37 -25 61q-31 30 -87 30q-68 0 -105 -49q-13 -18 -30 -67l-178 29q33 104 83 159q79 86 237 86q156 0 234 -78q61 -61 61 -161q0 -124 -116 -183q149 -63 149 -205q0 -130 -93 -201q-86 -66 -235 -66q-176 0 -260 87 q-61 63 -71 183l177 20q5 -51 35 -83q42 -47 117 -47q60 0 95 28q38 29 38 81q0 89 -108 111q-46 9 -135 9zM422 0l743 1475h194l-743 -1475h-194zM1390 0v179h-394v155l249 526h201l-252 -527h196v249h174v-249h117v-154h-117v-179h-174z"/>
<glyph unicode="¿" horiz-adv-x="1032" vert-adv-y="2457" d="M675 1419v-276h-261v276h261zM659 995v-553q-144 -1 -212 -32q-130 -59 -130 -202q0 -95 59 -154q60 -61 152 -61q120 0 178 102q28 51 40 156h225q-13 -175 -77 -278q-120 -191 -373 -191q-199 0 -323 120q-125 121 -125 316q0 174 107 283q90 90 255 118v376h224z"/>
<glyph unicode="À" horiz-adv-x="1468" vert-adv-y="2457" d="M1025 424h-586l-80 -217h146v-207h-514v207h115l496 1268h260l498 -1268h117v-207h-517v207h147zM949 626l-218 601l-216 -601h434zM688 1589l-277 338h249l190 -338h-162z"/>
<glyph unicode="Á" horiz-adv-x="1468" vert-adv-y="2457" d="M1025 424h-586l-80 -217h146v-207h-514v207h115l496 1268h260l498 -1268h117v-207h-517v207h147zM949 626l-218 601l-216 -601h434zM631 1589l190 338h249l-277 -338h-162z"/>
<glyph unicode="Â" horiz-adv-x="1468" vert-adv-y="2457" d="M1025 424h-586l-80 -217h146v-207h-514v207h115l496 1268h260l498 -1268h117v-207h-517v207h147zM949 626l-218 601l-216 -601h434zM734 1784l-154 -195h-160l205 338h218l204 -338h-161z"/>
<glyph unicode="Ã" horiz-adv-x="1468" vert-adv-y="2457" d="M1025 424h-586l-80 -217h146v-207h-514v207h115l496 1268h260l498 -1268h117v-207h-517v207h147zM949 626l-218 601l-216 -601h434zM558 1628h-149q38 236 226 236q48 0 100 -21q23 -10 82 -38q40 -19 63 -19q48 0 75 77h151q-22 -104 -63 -160q-59 -81 -173 -81 q-48 0 -92 18q-31 13 -90 41q-37 18 -56 18q-46 0 -74 -71z"/>
<glyph unicode="Ä" horiz-adv-x="1468" vert-adv-y="2457" d="M1025 424h-586l-80 -217h146v-207h-514v207h115l496 1268h260l498 -1268h117v-207h-517v207h147zM949 626l-218 601l-216 -601h434zM431 1709v235h217v-235h-217zM820 1709v235h217v-235h-217z"/>
<glyph unicode="Å" horiz-adv-x="1468" vert-adv-y="2457" d="M1025 424h-586l-80 -217h146v-207h-514v207h115l496 1268h260l498 -1268h117v-207h-517v207h147zM949 626l-218 601l-216 -601h434zM735 2035q122 0 191 -74q60 -66 60 -168q0 -103 -60 -169q-68 -74 -190 -74q-125 0 -193 74q-60 66 -60 172q0 101 60 165q70 74 192 74z M735 1909q-61 0 -90 -41q-20 -28 -20 -74q0 -118 110 -118q109 0 109 117q0 116 -109 116z"/>
<glyph unicode="Æ" horiz-adv-x="1981" vert-adv-y="2457" d="M946 453h-506l-136 -246h156v-207h-543v207h127l578 1061h-141v207h1421v-397h-217v190h-489v-394h464v-207h-464v-460h494v237h216v-444h-1118v207h158v246zM946 652v616h-81l-326 -616h407z"/>
<glyph unicode="Ç" horiz-adv-x="1461" vert-adv-y="2457" d="M1229 384l150 -173q-119 -132 -268 -188q-118 -45 -279 -53l-31 -57q81 -9 119 -29q91 -48 91 -161q0 -119 -90 -175q-69 -42 -189 -42q-129 0 -259 39v178q164 -62 258 -62q92 0 92 62q0 42 -44 53q-24 6 -66 6q-13 0 -78 -5v115l43 83q-190 23 -313 109 q-282 196 -282 640q0 355 191 571q188 211 501 211q203 0 358 -98v67h202v-449h-216v20q0 85 -55 143q-94 99 -276 99q-218 0 -338 -163q-113 -154 -113 -397q0 -246 125 -397q116 -139 337 -139q165 0 295 78q47 29 135 114z"/>
<glyph unicode="È" horiz-adv-x="1249" vert-adv-y="2457" d="M214 207v1061h-142v207h1097v-383h-216v176h-489v-394h464v-207h-464v-460h494v222h216v-429h-1102v207h142zM635 1589l-277 338h250l190 -338h-163z"/>
<glyph unicode="É" horiz-adv-x="1249" vert-adv-y="2457" d="M214 207v1061h-142v207h1097v-383h-216v176h-489v-394h464v-207h-464v-460h494v222h216v-429h-1102v207h142zM527 1589l189 338h250l-277 -338h-162z"/>
<glyph unicode="Ê" horiz-adv-x="1249" vert-adv-y="2457" d="M214 207v1061h-142v207h1097v-383h-216v176h-489v-394h464v-207h-464v-460h494v222h216v-429h-1102v207h142zM659 1784l-154 -195h-160l205 338h218l204 -338h-161z"/>
<glyph unicode="Ë" horiz-adv-x="1249" vert-adv-y="2457" d="M214 207v1061h-142v207h1097v-383h-216v176h-489v-394h464v-207h-464v-460h494v222h216v-429h-1102v207h142zM335 1626v235h217v-235h-217zM723 1626v235h217v-235h-217z"/>
<glyph unicode="Ì" horiz-adv-x="679" vert-adv-y="2457" d="M215 207v1060h-141v208h533v-208h-142v-1060h142v-207h-533v207h141zM319 1589l-277 338h250l190 -338h-163z"/>
<glyph unicode="Í" horiz-adv-x="679" vert-adv-y="2457" d="M215 207v1060h-142v208h533v-208h-141v-1060h141v-207h-533v207h142zM227 1589l190 338h250l-278 -338h-162z"/>
<glyph unicode="Î" horiz-adv-x="679" vert-adv-y="2457" d="M215 207v1060h-142v208h533v-208h-141v-1060h141v-207h-533v207h142zM339 1784l-153 -195h-160l204 338h219l204 -338h-161z"/>
<glyph unicode="Ï" horiz-adv-x="679" vert-adv-y="2457" d="M215 207v1060h-141v208h532v-208h-141v-1060h141v-207h-532v207h141zM37 1626v235h217v-235h-217zM426 1626v235h217v-235h-217z"/>
<glyph unicode="Ð" horiz-adv-x="1479" vert-adv-y="2457" d="M214 207v484h-209v181h209v395h-142v208h523q227 0 380 -60q217 -85 327 -279q94 -166 94 -399q0 -365 -229 -562q-132 -114 -318 -152q-112 -23 -254 -23h-523v207h142zM464 207h121q242 0 388 119q169 139 169 410q0 272 -169 411q-145 120 -388 120h-121v-395h356 v-181h-356v-484z"/>
<glyph unicode="Ñ" horiz-adv-x="1470" vert-adv-y="2457" d="M214 207v1060h-142v208h435l444 -816q21 -39 89 -193q-6 142 -6 213v588h-156v208h526v-208h-142v-1293h-193l-550 1020q-7 12 -84 184q7 -165 7 -188v-783h152v-207h-522v207h142zM554 1628h-149q38 236 226 236q48 0 100 -21q23 -10 82 -38q39 -19 63 -19q48 0 75 77 h151q-22 -104 -63 -160q-59 -81 -173 -81q-48 0 -92 18q-31 13 -90 41q-37 18 -56 18q-47 0 -74 -71z"/>
<glyph unicode="Ò" horiz-adv-x="1715" vert-adv-y="2457" d="M858 1506q247 0 443 -132q189 -126 274 -336q57 -141 57 -300q0 -283 -169 -491q-117 -143 -289 -216q-148 -62 -314 -62q-251 0 -447 132q-188 126 -273 337q-57 141 -57 309q0 179 79 342q101 207 313 323q173 94 383 94zM858 1289q-232 0 -382 -165 q-139 -152 -139 -379q0 -240 139 -394q149 -165 383 -165q231 0 380 165q139 154 139 387q0 235 -139 386q-151 165 -381 165zM846 1589l-277 338h250l189 -338h-162z"/>
<glyph unicode="Ó" horiz-adv-x="1715" vert-adv-y="2457" d="M858 1506q247 0 443 -132q189 -126 274 -336q57 -141 57 -300q0 -283 -169 -491q-117 -143 -289 -216q-148 -62 -314 -62q-251 0 -447 132q-188 126 -273 337q-57 141 -57 309q0 179 79 342q101 207 313 323q173 94 383 94zM858 1289q-232 0 -382 -165 q-139 -152 -139 -379q0 -240 139 -394q149 -165 383 -165q231 0 380 165q139 154 139 387q0 235 -139 386q-151 165 -381 165zM706 1589l190 338h249l-277 -338h-162z"/>
<glyph unicode="Ô" horiz-adv-x="1715" vert-adv-y="2457" d="M858 1506q247 0 443 -132q189 -126 274 -336q57 -141 57 -300q0 -283 -169 -491q-117 -143 -289 -216q-148 -62 -314 -62q-251 0 -447 132q-188 126 -273 337q-57 141 -57 309q0 179 79 342q101 207 313 323q173 94 383 94zM858 1289q-232 0 -382 -165 q-139 -152 -139 -379q0 -240 139 -394q149 -165 383 -165q231 0 380 165q139 154 139 387q0 235 -139 386q-151 165 -381 165zM857 1784l-153 -195h-160l204 338h218l204 -338h-161z"/>
<glyph unicode="Õ" horiz-adv-x="1715" vert-adv-y="2457" d="M858 1506q247 0 443 -132q189 -126 274 -336q57 -141 57 -300q0 -283 -169 -491q-117 -143 -289 -216q-148 -62 -314 -62q-251 0 -447 132q-188 126 -273 337q-57 141 -57 309q0 179 79 342q101 207 313 323q173 94 383 94zM858 1289q-232 0 -382 -165 q-139 -152 -139 -379q0 -240 139 -394q149 -165 383 -165q231 0 380 165q139 154 139 387q0 235 -139 386q-151 165 -381 165zM682 1628h-150q39 236 226 236q48 0 100 -21q23 -10 82 -38q40 -19 63 -19q49 0 75 77h151q-22 -104 -63 -160q-59 -81 -173 -81q-48 0 -92 18 q-31 13 -90 41q-37 18 -56 18q-46 0 -73 -71z"/>
<glyph unicode="Ö" horiz-adv-x="1715" vert-adv-y="2457" d="M858 1506q247 0 443 -132q189 -126 274 -336q57 -141 57 -300q0 -283 -169 -491q-117 -143 -289 -216q-148 -62 -314 -62q-251 0 -447 132q-188 126 -273 337q-57 141 -57 309q0 179 79 342q101 207 313 323q173 94 383 94zM858 1289q-232 0 -382 -165 q-139 -152 -139 -379q0 -240 139 -394q149 -165 383 -165q231 0 380 165q139 154 139 387q0 235 -139 386q-151 165 -381 165zM554 1709v235h217v-235h-217zM943 1709v235h217v-235h-217z"/>
<glyph unicode="×" vert-adv-y="2457" d="M425 736l-268 267l149 149l267 -268l268 268l149 -149l-268 -267l268 -268l-149 -149l-268 268l-267 -268l-149 149z"/>
<glyph unicode="Ø" horiz-adv-x="1715" vert-adv-y="2457" d="M295 192q-218 222 -218 547q0 282 169 490q117 143 289 216q148 62 316 62q233 0 426 -120l134 164h228l-225 -273q212 -231 212 -540q0 -283 -169 -490q-117 -143 -289 -216q-148 -62 -318 -62q-175 0 -324 67q-38 17 -92 47l-147 -179h-228zM449 379l682 831 q-136 80 -278 80q-233 0 -383 -165q-139 -154 -139 -387q0 -127 46 -239q30 -71 72 -120zM1259 1089l-678 -827q134 -75 271 -75q230 0 381 165q139 154 139 386q0 135 -47 238q-17 37 -66 113z"/>
<glyph unicode="Ù" horiz-adv-x="1450" vert-adv-y="2457" d="M62 1267v208h547v-208h-155v-686q0 -192 45 -275q61 -114 226 -114t226 114q45 83 45 275v686h-155v208h547v-208h-142v-641q0 -211 -23 -316q-37 -164 -163 -252q-127 -89 -335 -89q-312 0 -438 196q-59 93 -76 243q-7 69 -7 218v641h-142zM709 1589l-277 338h250 l189 -338h-162z"/>
<glyph unicode="Ú" horiz-adv-x="1450" vert-adv-y="2457" d="M62 1267v208h547v-208h-155v-686q0 -192 45 -275q61 -114 226 -114t226 114q45 83 45 275v686h-155v208h547v-208h-142v-641q0 -211 -23 -316q-37 -164 -163 -252q-127 -89 -335 -89q-312 0 -438 196q-59 93 -76 243q-7 69 -7 218v641h-142zM611 1589l189 338h250 l-277 -338h-162z"/>
<glyph unicode="Û" horiz-adv-x="1450" vert-adv-y="2457" d="M62 1267v208h547v-208h-155v-686q0 -192 45 -275q61 -114 226 -114t226 114q45 83 45 275v686h-155v208h547v-208h-142v-641q0 -211 -23 -316q-37 -164 -163 -252q-127 -89 -335 -89q-312 0 -438 196q-59 93 -76 243q-7 69 -7 218v641h-142zM747 1784l-154 -195h-160 l205 338h218l204 -338h-161z"/>
<glyph unicode="Ü" horiz-adv-x="1450" vert-adv-y="2457" d="M62 1267v208h547v-208h-155v-686q0 -192 45 -275q61 -114 226 -114t226 114q45 83 45 275v686h-155v208h547v-208h-142v-641q0 -211 -23 -316q-37 -164 -163 -252q-127 -89 -335 -89q-312 0 -438 196q-59 93 -76 243q-7 69 -7 218v641h-142zM422 1709v235h217v-235h-217z M811 1709v235h217v-235h-217z"/>
<glyph unicode="Ý" horiz-adv-x="1253" vert-adv-y="2457" d="M497 207v465l-382 595h-111v208h529v-208h-125l229 -385l227 385h-123v208h501v-208h-118l-377 -599v-461h187v-207h-624v207h187zM543 1589l190 338h250l-277 -338h-163z"/>
<glyph unicode="Þ" horiz-adv-x="1268" vert-adv-y="2457" d="M214 207v1060h-142v208h531v-208h-139v-83h136q174 0 279 -21q169 -34 256 -151q76 -103 76 -255q0 -240 -179 -335q-156 -82 -431 -82h-137v-133h182v-207h-574v207h142zM464 532h129q364 0 364 231q0 223 -356 223h-137v-454z"/>
<glyph unicode="ß" horiz-adv-x="1320" vert-adv-y="2457" d="M208 207v578h-143v207h143v81q0 216 134 327q127 104 336 104q211 0 339 -105q111 -91 111 -251q0 -195 -184 -286q103 -28 177 -101q123 -120 123 -329q0 -235 -130 -358q-109 -103 -312 -103q-80 0 -162 14l27 209q66 -14 112 -14q125 0 181 93q40 68 40 176 q0 177 -123 249q-69 40 -243 41v193q98 2 157 31q58 27 87 83q18 34 18 78q0 88 -57 134q-61 50 -161 50q-126 0 -183 -76q-47 -62 -47 -157v-868h107v-207h-490v207h143z"/>
<glyph unicode="à" horiz-adv-x="1192" vert-adv-y="2457" d="M533 1183l-288 350h249l201 -350h-162zM827 0v117q-137 -146 -330 -146q-203 0 -331 141q-130 143 -130 384q0 240 130 384q128 141 330 141q143 0 241 -68q26 -18 69 -60v127l240 1v-814h142v-207h-361zM537 814q-119 0 -189 -89q-68 -85 -68 -229q0 -140 63 -224 q71 -94 194 -94q125 0 200 94q69 87 69 220q0 143 -69 228q-77 94 -200 94z"/>
<glyph unicode="á" horiz-adv-x="1192" vert-adv-y="2457" d="M462 1183l201 350h250l-289 -350h-162zM827 0v117q-137 -146 -330 -146q-203 0 -331 141q-130 143 -130 384q0 240 130 384q128 141 330 141q143 0 241 -68q26 -18 69 -60v127l240 1v-814h142v-207h-361zM537 814q-119 0 -189 -89q-68 -85 -68 -229q0 -140 63 -224 q71 -94 194 -94q125 0 200 94q69 87 69 220q0 143 -69 228q-77 94 -200 94z"/>
<glyph unicode="â" horiz-adv-x="1192" vert-adv-y="2457" d="M557 1392l-159 -207h-160l210 350h218l210 -350h-161zM827 0v117q-137 -146 -330 -146q-203 0 -331 141q-130 143 -130 384q0 240 130 384q128 141 330 141q143 0 241 -68q26 -18 69 -60v127l240 1v-814h142v-207h-361zM537 814q-119 0 -189 -89q-68 -85 -68 -229 q0 -140 63 -224q71 -94 194 -94q125 0 200 94q69 87 69 220q0 143 -69 228q-77 94 -200 94z"/>
<glyph unicode="ã" horiz-adv-x="1192" vert-adv-y="2457" d="M369 1240h-139q37 235 211 235q45 0 93 -21q22 -10 77 -38q37 -19 58 -19q46 0 71 77h140q-21 -105 -59 -160q-55 -80 -161 -80q-45 0 -85 18q-30 13 -84 41q-35 18 -53 18q-44 0 -69 -71zM827 0v117q-137 -146 -330 -146q-203 0 -331 141q-130 143 -130 384 q0 240 130 384q128 141 330 141q143 0 241 -68q26 -18 69 -60v127l240 1v-814h142v-207h-361zM537 814q-119 0 -189 -89q-68 -85 -68 -229q0 -140 63 -224q71 -94 194 -94q125 0 200 94q69 87 69 220q0 143 -69 228q-77 94 -200 94z"/>
<glyph unicode="ä" horiz-adv-x="1192" vert-adv-y="2457" d="M290 1240v234h217v-234h-217zM652 1240v234h217v-234h-217zM827 0v117q-137 -146 -330 -146q-203 0 -331 141q-130 143 -130 384q0 240 130 384q128 141 330 141q143 0 241 -68q26 -18 69 -60v127l240 1v-814h142v-207h-361zM537 814q-119 0 -189 -89q-68 -85 -68 -229 q0 -140 63 -224q71 -94 194 -94q125 0 200 94q69 87 69 220q0 143 -69 228q-77 94 -200 94z"/>
<glyph unicode="å" horiz-adv-x="1192" vert-adv-y="2457" d="M589 1657q122 0 191 -74q60 -65 60 -168q0 -102 -60 -168q-68 -74 -191 -74q-124 0 -192 74q-60 66 -60 171q0 101 60 165q70 74 192 74zM588 1531q-60 0 -89 -40q-20 -28 -20 -75q0 -117 110 -117q109 0 109 116t-110 116zM827 0v117q-137 -146 -330 -146 q-203 0 -331 141q-130 143 -130 384q0 240 130 384q128 141 330 141q143 0 241 -68q26 -18 69 -60v127l240 1v-814h142v-207h-361zM537 814q-119 0 -189 -89q-68 -85 -68 -229q0 -140 63 -224q71 -94 194 -94q125 0 200 94q69 87 69 220q0 143 -69 228q-77 94 -200 94z"/>
<glyph unicode="æ" horiz-adv-x="1835" vert-adv-y="2457" d="M753 600v37q0 86 -33 125q-51 61 -179 61q-96 0 -135 -37q-27 -25 -35 -88h-218q9 162 85 236q89 87 294 87q286 0 365 -164q144 164 376 164q212 0 342 -127q112 -110 140 -292q11 -72 13 -184h-772q16 -85 48 -131q76 -109 240 -109q122 0 237 48q45 19 122 64 l112 -179q-95 -60 -168 -88q-141 -54 -290 -54q-266 0 -402 178q-162 -176 -452 -176q-378 0 -378 318q0 184 131 266q90 56 299 56q108 0 258 -11zM758 420q-117 11 -241 11q-121 0 -163 -29q-48 -32 -48 -103q0 -67 43 -97q42 -29 138 -29q162 0 232 70q29 28 36 61 q3 16 3 53v63zM1513 603q-44 218 -256 218q-206 0 -257 -218h513z"/>
<glyph unicode="ç" horiz-adv-x="1033" vert-adv-y="2457" d="M891 300l124 -163q-150 -149 -397 -166l-31 -58q81 -9 119 -29q91 -48 91 -161q0 -118 -90 -175q-69 -42 -188 -42q-130 0 -260 39v178q161 -62 258 -62q92 0 92 62q0 42 -44 53q-24 6 -66 6q-21 0 -78 -5v115l43 85q-123 19 -204 74q-190 131 -190 433q0 238 118 385 q122 152 335 152q138 0 244 -77v48h182v-360h-202v26q0 74 -36 107q-54 49 -146 49q-125 0 -189 -91q-62 -86 -62 -230q0 -149 73 -234q70 -81 194 -81q121 0 216 52q42 22 94 70z"/>
<glyph unicode="è" horiz-adv-x="1158" vert-adv-y="2457" d="M1091 418h-772q16 -85 48 -131q40 -56 97 -83q54 -26 143 -26q122 0 237 48q46 19 123 64l111 -179q-98 -60 -172 -88q-147 -54 -302 -54q-247 0 -391 143q-146 145 -146 384q0 241 145 386q139 139 373 139q209 0 341 -120q120 -109 151 -294q13 -78 14 -189zM836 603 q-44 218 -256 218q-206 0 -257 -218h513zM566 1183l-289 350h250l201 -350h-162z"/>
<glyph unicode="é" horiz-adv-x="1158" vert-adv-y="2457" d="M1091 418h-772q16 -85 48 -131q40 -56 97 -83q54 -26 143 -26q122 0 237 48q46 19 123 64l111 -179q-98 -60 -172 -88q-147 -54 -302 -54q-247 0 -391 143q-146 145 -146 384q0 241 145 386q139 139 373 139q209 0 341 -120q120 -109 151 -294q13 -78 14 -189zM836 603 q-44 218 -256 218q-206 0 -257 -218h513zM455 1186l201 350h249l-288 -350h-162z"/>
<glyph unicode="ê" horiz-adv-x="1158" vert-adv-y="2457" d="M1091 418h-772q16 -85 48 -131q40 -56 97 -83q54 -26 143 -26q122 0 237 48q46 19 123 64l111 -179q-98 -60 -172 -88q-147 -54 -302 -54q-247 0 -391 143q-146 145 -146 384q0 241 145 386q139 139 373 139q209 0 341 -120q120 -109 151 -294q13 -78 14 -189zM836 603 q-44 218 -256 218q-206 0 -257 -218h513zM601 1393l-159 -207h-160l210 350h218l210 -350h-161z"/>
<glyph unicode="ë" horiz-adv-x="1158" vert-adv-y="2457" d="M1091 418h-772q44 -240 288 -240q122 0 237 48q45 19 123 64l111 -179q-98 -60 -172 -88q-147 -54 -302 -54q-247 0 -391 143q-146 145 -146 384q0 241 145 386q139 139 373 139q208 0 341 -120q121 -110 151 -294q12 -78 14 -189zM836 603q-44 218 -256 218 q-208 0 -257 -218h513zM299 1240v234h217v-234h-217zM661 1240v234h217v-234h-217z"/>
<glyph unicode="ì" horiz-adv-x="640" vert-adv-y="2457" d="M256 1596l-289 350h250l201 -350h-162zM217 207v578h-143v207h383v-785h142v-207h-537v207h155zM211 1213v261h252v-261h-252z"/>
<glyph unicode="í" horiz-adv-x="640" vert-adv-y="0" d="M256 1596l201 350h250l-289 -350h-162zM217 207v578h-143v207h383v-785h142v-207h-537v207h155zM211 1213v261h252v-261h-252z"/>
<glyph unicode="î" horiz-adv-x="640" vert-adv-y="0" d="M337 1803l-159 -207h-160l210 350h218l210 -350h-161zM217 207v578h-143v207h383v-785h142v-207h-537v207h155zM211 1213v261h252v-261h-252z"/>
<glyph unicode="ï" horiz-adv-x="640" vert-adv-y="0" d="M47 1596v234h217v-234h-217zM410 1596v234h217v-234h-217zM217 207v578h-143v207h383v-785h142v-207h-537v207h155zM211 1213v261h252v-261h-252z"/>
<glyph unicode="ð" horiz-adv-x="1213" vert-adv-y="0" d="M362 1049l-75 112l195 124l-18 15l-116 98l136 127q110 -83 169 -135l214 135l75 -112l-186 -119q137 -139 220 -264q168 -252 168 -525q0 -258 -151 -397q-150 -137 -386 -137q-238 0 -385 137q-152 141 -152 373q0 231 152 376q141 135 352 135q92 0 153 -31 q24 -12 64 -40q-104 166 -207 268zM606 793q-137 0 -220 -91q-72 -81 -72 -217q0 -134 72 -215q82 -92 221 -92q140 0 221 92q73 81 73 212q0 141 -72 220q-83 91 -223 91z"/>
<glyph unicode="ñ" horiz-adv-x="1295" vert-adv-y="2457" d="M208 207v578h-143v207h383v-124q95 75 133 97q100 56 210 56q187 0 258 -132q53 -96 53 -316v-366h140v-207h-504v207h124v378q0 97 -19 145q-30 76 -119 76q-81 0 -169 -62q-40 -29 -107 -96v-441h132v-207h-515v207h143zM453 1240h-139q37 235 211 235q44 0 93 -21 l77 -38q37 -19 58 -19q45 0 71 77h140q-22 -104 -59 -160q-55 -80 -161 -80q-45 0 -86 18q-27 12 -83 41q-35 18 -54 18q-42 0 -68 -71z"/>
<glyph unicode="ò" horiz-adv-x="1214" vert-adv-y="2457" d="M607 1021q237 0 385 -141q152 -145 152 -384t-152 -384q-147 -141 -384 -141q-239 0 -386 141q-152 145 -152 391q0 153 70 274q76 131 224 197q108 47 243 47zM607 814q-139 0 -221 -94q-72 -84 -72 -220q0 -144 72 -227q82 -95 222 -95q138 0 219 95q73 83 73 223 q0 141 -73 224q-83 94 -220 94zM596 1184l-288 350h249l201 -350h-162z"/>
<glyph unicode="ó" horiz-adv-x="1214" vert-adv-y="2457" d="M607 1021q237 0 385 -141q152 -145 152 -384t-152 -384q-147 -141 -384 -141q-239 0 -386 141q-152 145 -152 391q0 153 70 274q76 131 224 197q108 47 243 47zM607 814q-139 0 -221 -94q-72 -84 -72 -220q0 -144 72 -227q82 -95 222 -95q138 0 219 95q73 83 73 223 q0 141 -73 224q-83 94 -220 94zM456 1186l201 350h250l-289 -350h-162z"/>
<glyph unicode="ô" horiz-adv-x="1214" vert-adv-y="2457" d="M607 1021q237 0 385 -141q152 -145 152 -384t-152 -384q-147 -141 -384 -141q-239 0 -386 141q-152 145 -152 391q0 153 70 274q76 131 224 197q108 47 243 47zM607 814q-139 0 -221 -94q-72 -84 -72 -220q0 -144 72 -227q82 -95 222 -95q138 0 219 95q73 83 73 223 q0 141 -73 224q-83 94 -220 94zM607 1393l-159 -207h-160l210 350h218l210 -350h-161z"/>
<glyph unicode="õ" horiz-adv-x="1214" vert-adv-y="2457" d="M607 1021q237 0 385 -141q152 -145 152 -384t-152 -384q-147 -141 -384 -141q-239 0 -386 141q-152 145 -152 391q0 153 70 274q76 131 224 197q108 47 243 47zM607 814q-139 0 -221 -94q-72 -84 -72 -220q0 -144 72 -227q82 -95 222 -95q138 0 219 95q73 83 73 223 q0 141 -73 224q-83 94 -220 94zM421 1240h-139q37 235 211 235q44 0 93 -21l77 -38q37 -19 58 -19q46 0 71 77h140q-22 -104 -59 -160q-55 -80 -161 -80q-45 0 -85 18q-29 12 -84 41q-34 18 -53 18q-43 0 -69 -71z"/>
<glyph unicode="ö" horiz-adv-x="1214" vert-adv-y="2457" d="M607 1021q237 0 385 -141q152 -145 152 -384t-152 -384q-147 -141 -384 -141q-239 0 -386 141q-152 145 -152 391q0 153 70 274q76 131 224 197q108 47 243 47zM607 814q-139 0 -221 -94q-72 -84 -72 -220q0 -144 72 -227q82 -95 222 -95q138 0 219 95q73 83 73 223 q0 141 -73 224q-83 94 -220 94zM317 1240v234h217v-234h-217zM680 1240v234h217v-234h-217z"/>
<glyph unicode="÷" vert-adv-y="2457" d="M144 631v210h859v-210h-859zM455 991v256h237v-256h-237zM455 232v256h237v-256h-237z"/>
<glyph unicode="ø" horiz-adv-x="1214" vert-adv-y="2457" d="M207 122q-49 54 -75 100q-66 118 -66 277q0 236 151 381q148 141 384 141q145 0 268 -59l60 75h202l-132 -168q140 -150 140 -374q0 -238 -151 -383q-148 -141 -385 -141q-138 0 -266 58l-88 -112h-203zM358 314l373 472q-69 28 -126 28q-141 0 -223 -94 q-72 -84 -72 -219q0 -97 48 -187zM848 677l-372 -471q80 -28 127 -28q138 0 220 95q72 83 72 216q0 92 -47 188z"/>
<glyph unicode="ù" horiz-adv-x="1239" vert-adv-y="2457" d="M193 785h-140v207h380v-585q0 -94 13 -137q21 -71 96 -71q76 0 159 57q36 25 102 88v441h-132v207h371v-785h142v-207h-381v123q-94 -70 -128 -88q-96 -51 -199 -51q-172 0 -236 128q-47 95 -47 307v366zM598 1186l-288 350h250l201 -350h-163z"/>
<glyph unicode="ú" horiz-adv-x="1239" vert-adv-y="2457" d="M193 785h-140v207h380v-585q0 -94 13 -137q21 -71 96 -71q76 0 159 57q36 25 102 88v441h-132v207h371v-785h142v-207h-381v123q-94 -70 -128 -88q-96 -51 -199 -51q-172 0 -236 128q-47 95 -47 307v366zM468 1186l201 350h250l-289 -350h-162z"/>
<glyph unicode="û" horiz-adv-x="1239" vert-adv-y="2457" d="M193 785h-140v207h380v-585q0 -94 13 -137q21 -71 96 -71q76 0 159 57q36 25 102 88v441h-132v207h371v-785h142v-207h-381v123q-94 -70 -128 -88q-96 -51 -199 -51q-172 0 -236 128q-47 95 -47 307v366zM619 1390l-159 -207h-160l210 350h219l209 -350h-161z"/>
<glyph unicode="ü" horiz-adv-x="1239" vert-adv-y="2457" d="M193 785h-140v207h380v-585q0 -94 13 -137q21 -71 96 -71q76 0 159 57q36 25 102 88v441h-132v207h371v-785h142v-207h-381v123q-94 -70 -128 -88q-96 -51 -199 -51q-172 0 -236 128q-47 95 -47 307v366zM313 1240v234h217v-234h-217zM675 1240v234h217v-234h-217z"/>
<glyph unicode="ý" horiz-adv-x="1112" vert-adv-y="2457" d="M106 785h-92v207h486v-207h-139l151 -350q17 -39 53 -142q25 70 67 168l140 324h-142v207h489v-207h-102l-400 -867q-50 -106 -88 -172q-74 -126 -205 -154q-61 -13 -171 -14v208q95 0 131 19q54 29 105 141l48 106zM460 1118l201 350h250l-289 -350h-162z"/>
<glyph unicode="þ" horiz-adv-x="1296" vert-adv-y="2457" d="M191 -214v1481h-143v208h384v-580q70 56 91 69q94 57 229 57q208 0 339 -141q133 -144 133 -384t-133 -384q-131 -141 -341 -141q-124 0 -225 59q-42 24 -94 69v-313h149v-208h-532v208h143zM711 814q-130 0 -209 -94q-71 -85 -71 -220q0 -142 71 -227q79 -95 209 -95 q128 0 203 94q66 84 66 224q0 146 -71 229q-76 89 -198 89z"/>
<glyph unicode="ÿ" horiz-adv-x="1112" vert-adv-y="2457" d="M106 785h-92v207h486v-207h-139l151 -350q17 -39 53 -142q25 70 67 168l140 324h-142v207h489v-207h-102l-400 -867q-50 -106 -88 -172q-74 -126 -205 -154q-61 -13 -171 -14v208q95 0 131 19q54 29 105 141l48 106zM291 1156v234h217v-234h-217zM654 1156v234h217v-234 h-217z"/>
<glyph unicode="Œ" horiz-adv-x="2091" vert-adv-y="2457" d="M1305 207h494v237h216v-444h-732q-49 0 -166 -8q-163 -10 -243 -10q-358 0 -556 176q-238 211 -238 580q0 346 229 561q110 104 249 150q129 44 309 44q81 0 241 -10q122 -8 192 -8h711v-397h-216v190h-490v-394h464v-207h-464v-460zM1055 205v1063q-88 15 -179 15 q-253 0 -404 -154q-138 -142 -138 -387q0 -280 182 -429q148 -121 375 -121q68 0 164 13z"/>
<glyph unicode="œ" horiz-adv-x="1991" vert-adv-y="2457" d="M1021 189q-50 -69 -89 -103q-129 -115 -340 -115q-231 0 -375 141q-147 145 -147 384t147 384q144 141 375 141q205 0 336 -112q43 -36 92 -104q43 66 85 104q124 112 327 112q205 0 333 -122q112 -106 144 -287q14 -81 15 -194h-772q16 -86 48 -131q40 -56 97 -83 q54 -26 143 -26q122 0 237 48q46 19 123 64l111 -179q-95 -60 -167 -88q-142 -54 -293 -54q-220 0 -350 120q-40 38 -80 100zM606 814q-138 0 -220 -94q-72 -84 -72 -223q0 -140 72 -224q82 -94 221 -94t220 94q73 84 73 219q0 145 -73 228q-83 94 -221 94zM1669 603 q-44 218 -255 218q-207 0 -258 -218h513z"/>
<glyph unicode="Ÿ" horiz-adv-x="1253" vert-adv-y="2457" d="M497 207v465l-382 595h-111v208h529v-208h-125l229 -385l227 385h-123v208h501v-208h-118l-377 -599v-461h187v-207h-624v207h187zM337 1626v235h217v-235h-217zM726 1626v235h217v-235h-217z"/>
<glyph unicode="ˆ" horiz-adv-x="1024" vert-adv-y="2457" d="M512 1325l-159 -207h-160l210 350h218l210 -350h-161z"/>
<glyph unicode="˜" horiz-adv-x="1024" vert-adv-y="2457" d="M326 1158h-139q37 235 211 235q44 0 93 -21l77 -38q37 -19 58 -19q45 0 71 77h140q-21 -104 -59 -160q-55 -80 -161 -80q-45 0 -85 18q-27 12 -84 41q-34 18 -53 18q-43 0 -69 -71z"/>
<glyph unicode=" " horiz-adv-x="1017" vert-adv-y="0"/>
<glyph unicode=" " horiz-adv-x="2035" vert-adv-y="0"/>
<glyph unicode=" " horiz-adv-x="1017" vert-adv-y="0"/>
<glyph unicode=" " horiz-adv-x="2035" vert-adv-y="0"/>
<glyph unicode=" " horiz-adv-x="678" vert-adv-y="0"/>
<glyph unicode=" " horiz-adv-x="508" vert-adv-y="0"/>
<glyph unicode=" " horiz-adv-x="339" vert-adv-y="0"/>
<glyph unicode=" " horiz-adv-x="339" vert-adv-y="0"/>
<glyph unicode=" " horiz-adv-x="254" vert-adv-y="0"/>
<glyph unicode=" " horiz-adv-x="407" vert-adv-y="0"/>
<glyph unicode=" " horiz-adv-x="113" vert-adv-y="0"/>
<glyph unicode="‐" horiz-adv-x="715" vert-adv-y="2457" d="M85 463v208h546v-208h-546z"/>
<glyph unicode="‑" horiz-adv-x="715" vert-adv-y="2457" d="M85 463v208h546v-208h-546z"/>
<glyph unicode="‒" horiz-adv-x="715" vert-adv-y="2457" d="M85 463v208h546v-208h-546z"/>
<glyph unicode="–" horiz-adv-x="1024" vert-adv-y="2457" d="M82 473v187h860v-187h-860z"/>
<glyph unicode="—" horiz-adv-x="1024" vert-adv-y="2457" d="M-123 473v187h1270v-187h-1270z"/>
<glyph unicode="‘" horiz-adv-x="590" vert-adv-y="2457" d="M64 974l204 501h233l-169 -501h-268z"/>
<glyph unicode="’" horiz-adv-x="590" vert-adv-y="2457" d="M59 974l169 501h268l-204 -501h-233z"/>
<glyph unicode="‚" horiz-adv-x="591" vert-adv-y="2457" d="M59 -224l169 501h269l-205 -501h-233z"/>
<glyph unicode="“" horiz-adv-x="964" vert-adv-y="2457" d="M73 974l204 501h232l-167 -501h-269zM430 974l205 501h231l-168 -501h-268z"/>
<glyph unicode="”" horiz-adv-x="964" vert-adv-y="2457" d="M68 974l168 501h268l-204 -501h-232zM425 974l168 501h268l-204 -501h-232z"/>
<glyph unicode="„" horiz-adv-x="964" vert-adv-y="2457" d="M68 -221l168 500h268l-204 -500h-232zM425 -221l168 500h269l-205 -500h-232z"/>
<glyph unicode="•" vert-adv-y="2457" d="M295 472v574h557v-574h-557z"/>
<glyph unicode="…" horiz-adv-x="1667" vert-adv-y="2457" d="M170 0v279h261v-279h-261zM703 0v279h261v-279h-261zM1236 0v279h261v-279h-261z"/>
<glyph unicode=" " horiz-adv-x="407" vert-adv-y="0"/>
<glyph unicode="‹" horiz-adv-x="596" vert-adv-y="2457" d="M315 475l171 -338l-177 -74l-200 412l200 414l177 -78z"/>
<glyph unicode="›" horiz-adv-x="596" vert-adv-y="2457" d="M280 475l-171 336l177 78l200 -414l-200 -412l-177 74z"/>
<glyph unicode=" " horiz-adv-x="508" vert-adv-y="0"/>
<glyph unicode="€" horiz-adv-x="1450" vert-adv-y="2457" d="M44 495v154h162q-3 45 -3 69q0 11 1 53h-160v154h176q36 204 149 352q175 229 468 229q172 0 309 -98v67h201v-449h-216v20q0 85 -45 143q-77 99 -233 99q-187 0 -290 -157q-60 -91 -86 -206h527v-154h-545q-2 -25 -2 -48q0 -29 3 -74h456v-154h-425q38 -107 78 -161 q105 -142 296 -142q145 0 258 78q44 31 119 114l149 -173q-90 -110 -190 -163q-147 -79 -343 -79q-330 0 -500 222q-95 124 -133 304h-181z"/>
<glyph unicode="™" horiz-adv-x="1593" vert-adv-y="2457" d="M263 900v444h-87v-93h-147v224h631v-224h-147v93h-86v-444h103v-131h-370v131h103zM722 900l38 444h-69v131h279l125 -387q2 -5 14 -46q12 44 13 46l126 387h277v-131h-69l38 -444h57v-131h-281v131h64l-23 334l-149 -465h-107l-149 465l-23 -334h64v-131h-281v131h56z "/>
<glyph unicode="" horiz-adv-x="990" vert-adv-y="1979" d="M0 990h990v-990h-990v990z"/>
<glyph unicode="ﬁ" horiz-adv-x="1395" vert-adv-y="2457" d="M972 207v578h-143v207h383v-785h142v-207h-537v207h155zM966 1213v261h252v-261h-252zM209 207v578h-149v207h149v84q0 200 84 295q93 104 289 104q87 0 177 -19v-198q-79 16 -149 16q-114 0 -145 -73q-16 -40 -16 -144v-65h243v-207h-243v-578h216v-207h-605v207h149z "/>
<glyph unicode="ﬂ" horiz-adv-x="1394" vert-adv-y="2457" d="M971 207v1060h-143v208h383v-1268h142v-207h-537v207h155zM209 207v578h-149v207h149v84q0 200 84 295q93 104 289 104q87 0 177 -19v-198q-79 16 -149 16q-114 0 -145 -73q-16 -40 -16 -144v-65h243v-207h-243v-578h216v-207h-605v207h149z"/>
<glyph unicode="ﬃ" horiz-adv-x="2150" vert-adv-y="2457" d="M1727 207v578h-143v207h383v-785h142v-207h-537v207h155zM1721 1213v261h252v-261h-252zM964 207v578h-149v207h149v84q0 200 84 295q93 104 289 104q87 0 177 -19v-198q-79 16 -149 16q-114 0 -145 -73q-16 -40 -16 -144v-65h243v-207h-243v-578h216v-207h-605v207h149z M209 207v578h-149v207h149v84q0 200 84 295q93 104 289 104q87 0 177 -19v-198q-79 16 -149 16q-114 0 -145 -73q-16 -40 -16 -144v-65h243v-207h-243v-578h216v-207h-605v207h149z"/>
<glyph unicode="ﬄ" horiz-adv-x="2149" vert-adv-y="2457" d="M1726 207v1060h-143v208h383v-1268h142v-207h-537v207h155zM964 207v578h-149v207h149v84q0 200 84 295q93 104 289 104q87 0 177 -19v-198q-79 16 -149 16q-114 0 -145 -73q-16 -40 -16 -144v-65h243v-207h-243v-578h216v-207h-605v207h149zM209 207v578h-149v207h149 v84q0 200 84 295q93 104 289 104q87 0 177 -19v-198q-79 16 -149 16q-114 0 -145 -73q-16 -40 -16 -144v-65h243v-207h-243v-578h216v-207h-605v207h149z"/>
</font>
</defs>
</svg>
