<?xml version="1.0" standalone="no"?>
<!DOCTYPE svg PUBLIC "-//W3C//DTD SVG 1.1//EN" "http://www.w3.org/Graphics/SVG/1.1/DTD/svg11.dtd" >
<svg xmlns="http://www.w3.org/2000/svg" xmlns:xlink="http://www.w3.org/1999/xlink" version="1.1">
<metadata>
Created by FontForge 20170731 at Tue Oct 22 11:57:08 2019
 By Aleksey,,,
</metadata>
<defs>
<font id="a1_iconfont" horiz-adv-x="1024" >
  <font-face 
    font-family="a1_iconfont"
    font-weight="400"
    font-stretch="normal"
    units-per-em="1024"
    panose-1="2 0 5 3 0 0 0 0 0 0"
    ascent="960"
    descent="-64"
    bbox="3 -64 1551 1024"
    underline-thickness="0"
    underline-position="0"
    unicode-range="U+0020-E64F"
  />
<missing-glyph 
 />
    <glyph glyph-name=".notdef" 
 />
    <glyph glyph-name=".notdef" 
 />
    <glyph glyph-name=".null" horiz-adv-x="0" 
 />
    <glyph glyph-name="nonmarkingreturn" horiz-adv-x="341" 
 />
    <glyph glyph-name="space" unicode=" " horiz-adv-x="512" 
 />
    <glyph glyph-name="icon_a1_alert" unicode="&#xe600;" 
d="M425 880v-456l40 -190h94l40 190v456h-174zM446 149h132v-133h-132v133z" />
    <glyph glyph-name="icon_a1_arrowball-down" unicode="&#xe601;" 
d="M943 448q0 88 -34 167.5t-92 137.5t-137.5 92t-167.5 34t-167.5 -34t-137.5 -92t-92 -137.5t-34 -167.5t34 -167.5t92 -137.5t137.5 -92t167.5 -34t167.5 34t137.5 92t92 137.5t34 167.5zM508 312l-175 175l59 59l121 -121l122 122l58 -59l-180 -181z" />
    <glyph glyph-name="icon_a1_arrowball-left" unicode="&#xe602;" 
d="M512 17q88 0 167.5 34t137.5 92t92 137.5t34 167.5t-34 167.5t-92 137.5t-137.5 92t-167.5 34t-167.5 -34t-137.5 -92t-92 -137.5t-34 -167.5t34 -167.5t92 -137.5t137.5 -92t167.5 -34zM376 452l175 175l59 -59l-121 -121l122 -122l-59 -58l-181 180z" />
    <glyph glyph-name="icon_a1_arrowball-right" unicode="&#xe603;" 
d="M512 879q-88 0 -167.5 -34t-137.5 -92t-92 -137.5t-34 -167.5t34 -167.5t92 -137.5t137.5 -92t167.5 -34t167.5 34t137.5 92t92 137.5t34 167.5t-34 167.5t-92 137.5t-137.5 92t-167.5 34zM648 445l-175 -175l-59 59l121 121l-122 121l59 59l181 -180z" />
    <glyph glyph-name="icon_a1_arrowball-up" unicode="&#xe604;" 
d="M81 448q0 -88 34 -167.5t92 -137.5t137.5 -92t167.5 -34t167.5 34t137.5 92t92 137.5t34 167.5t-34 167.5t-92 137.5t-137.5 92t-167.5 34t-167.5 -34t-137.5 -92t-92 -137.5t-34 -167.5zM516 584l175 -175l-59 -59l-121 121l-122 -122l-58 59l180 181z" />
    <glyph glyph-name="icon_a1_arrow-down" unicode="&#xe605;" 
d="M171 565l346 -346l346 347l-113 113l-233 -233l-233 233z" />
    <glyph glyph-name="icon_a1_arrow-left" unicode="&#xe606;" 
d="M633 795l-346 -345l347 -346l113 113l-234 233l233 232z" />
    <glyph glyph-name="icon_a1_arrow-right" unicode="&#xe607;" 
d="M401 104l346 345l-347 346l-113 -113l234 -233l-233 -232z" />
    <glyph glyph-name="icon_a1_arrow-up" unicode="&#xe608;" 
d="M863 333l-346 346l-346 -346l113 -114l233 234l233 -233z" />
    <glyph glyph-name="icon_a1_basket" unicode="&#xe609;" 
d="M358 679v185h-277v-93h185v-296l68 -196l609 196v204h-585zM389 217q-38 0 -65.5 -27t-27.5 -65.5t27.5 -65.5t65.5 -27t65 27t27 65.5t-27 65.5t-65 27zM789 217q-19 0 -36 -7.5t-29.5 -19.5t-19.5 -29.5t-7 -35.5q0 -25 12 -46.5t33.5 -34t46.5 -12.5q38 0 65.5 27
t27.5 65.5t-27.5 65.5t-65.5 27z" />
    <glyph glyph-name="icon_a1_bell" unicode="&#xe60a;" 
d="M767 272q-23 39 -28 74.5t-5.5 101t-7.5 125.5q-6 52 -27.5 91.5t-51.5 61t-55 32.5t-51 16v106h-58v-106q-16 -3 -32 -8.5t-36.5 -15.5t-38.5 -25.5t-34.5 -36t-28 -50t-15.5 -65.5q-7 -60 -7.5 -125.5t-5.5 -101t-28 -74.5q-9 -17 -20.5 -31t-24.5 -26v-34h600v34
q-28 26 -45 57zM582 86q0 -29 -20.5 -49.5t-49.5 -20.5q-10 0 -19 2.5t-16.5 7t-14 11t-11 14t-7 17t-2.5 18.5q0 29 20.5 49.5t49.5 20.5q19 0 35.5 -9t25.5 -25.5t9 -35.5z" />
    <glyph glyph-name="icon_a1_bullet" unicode="&#xe60b;" 
d="M512 879q88 0 167.5 -34t137.5 -92t92 -137.5t34 -167.5t-34 -167.5t-92 -137.5t-137.5 -92t-167.5 -34t-167.5 34t-137.5 92t-92 137.5t-34 167.5t34 167.5t92 137.5t137.5 92t167.5 34z" />
    <glyph glyph-name="icon_a1_burger" unicode="&#xe60c;" 
d="M81 735h862v-115h-862v115zM81 505h862v-114h-862v114zM81 276h862v-115h-862v115z" />
    <glyph glyph-name="icon_a1_calendar" unicode="&#xe60d;" 
d="M821 780v-5q0 -31 -12.5 -58t-34.5 -42.5t-48 -15.5q-40 0 -67.5 34t-27.5 82v5h-235v-5q0 -15 -3.5 -30.5t-9.5 -28t-14.5 -23.5t-19 -18.5t-23 -11.5t-25.5 -4q-39 0 -67 34t-28 82v5h-121v-764h854v764h-118zM871 80h-727v487h727v-487zM352 792.5q0 -36.5 -16 -62.5
t-39 -26q-15 0 -27.5 12t-20 32t-7.5 44t7.5 44.5t20 32t27.5 11.5q23 0 39 -25.5t16 -62zM782 792.5q0 -36.5 -16 -62.5t-39 -26q-11 0 -21.5 7t-17.5 19t-11.5 28t-4.5 34q0 24 7.5 44.5t20 32t27.5 11.5q23 0 39 -25.5t16 -62zM388 206v225l-57 -24l-10 25l73 32h28v-258
h58v-30h-151v30h59zM654 176v66h-122v31l82 191h36l-84 -193h88v107h33v-107h41v-29h-41v-66h-33z" />
    <glyph glyph-name="icon_a1_calendar-checked" unicode="&#xe60e;" 
d="M651 880h99v-172h-99v172zM274 880h99v-172h-99v172zM782 772v-96h-164v96h-212v-96h-164v96h-108v-756h756v756h-108zM593 325l-162 -164l-135 137l54 54l81 -82l243 246l54 -55z" />
    <glyph glyph-name="icon_a1_chat" unicode="&#xe60f;" 
d="M80 183h129v-140l168 140h277v447h-574v-447zM370 853v-171h340v-329l105 -87v139h129v448h-574z" />
    <glyph glyph-name="icon_a1_checkmark" unicode="&#xe610;" 
d="M889 745l-53 54l-486 -486l-162 162l-53 -54l-54 -54l269 -270l54 54l539 540z" />
    <glyph glyph-name="icon_a1_child-protection" unicode="&#xe611;" 
d="M836 231v304h-75v102q0 101 -72.5 172t-175.5 71h-4q-104 0 -177.5 -71t-73.5 -172v-102h-70v-304h648zM188 231l68 -215h512l68 215h-648zM362 637q0 29 11.5 55.5t31.5 45t47 29.5t57 11h4q40 0 74 -18.5t54.5 -51t20.5 -71.5v-102h-300v102zM364 404q21 18 38 18
q43 0 55 -8q5 -4 7 -9t2 -9.5t-0.5 -12.5t-0.5 -13q0 -21 -15 -36t-37 -15q-8 0 -16 2.5t-14 7.5t-11 11t-7.5 14t-2.5 16q0 6 -2 13.5t-1.5 12t5.5 8.5zM680 227l-38 50l-2 -27l39 -75h-39v-66h6v-8h-30v74h-11v-74h-31v8h7v66h-51l44 75l-3 22l-47 -54l-10 2l-17 -4
l-42 43v-85h-12v-66h6v-8h-30v74h-12v-74h-30v8h7v66h-11v86l-52 -44l-20 5l4 10l74 81h70l61 -76l64 77h71l59 -80zM668 319q1 11 -2 21t-8 18q-2 -9 -6.5 -16t-11 -12t-14.5 -8t-17 -3q-19 0 -33 12t-17 30q-16 -16 -13 -42q-18 1 -21 19q-3 22 23 32q5 2 10 3q0 6 2 12
q5 41 43 42q19 0 32 -8.5t17.5 -18.5t5.5 -19q1 -2 1 -3.5v-3.5q22 -4 31 -27t-16 -27q-3 -1 -6 -1z" />
    <glyph glyph-name="icon_a1_close" unicode="&#xe612;" 
d="M512 551l-255 255l-103 -102l256 -255l-256 -256l103 -102l255 255l256 -255l102 102l-256 256l256 255l-102 103z" />
    <glyph glyph-name="icon_a1_community" unicode="&#xe613;" 
d="M80 880v-648h216v-216l270 216h378v648h-864zM545 347h-66v66h66v-66zM645 587l-78 -76h-22v-34h-66v99h61l39 38v54l-39 38h-55l-39 -38v-27h-66v54l77 76h110l78 -76v-108z" />
    <glyph glyph-name="icon_a1_contact" unicode="&#xe614;" 
d="M521 652v163l29 30q-3 10 -7 18.5t-9 17.5h-162q-41 -71 -41 -176q0 -59 13.5 -109.5t37.5 -83.5h141q9 13 17 28t14 33t10.5 38t6.5 41h-50zM700 288h-64v153h-421l-82 -426h640l-53 273h-20zM801 881h-127l-90 -95v-67h77v34l45 47h63l45 -47v-68l-45 -47h-70v-123h77
v41h25l90 96v134zM699 435h77v-82h-77v82z" />
    <glyph glyph-name="icon_a1_delete" unicode="&#xe615;" 
d="M842 759l-212 51v71h-236v-71l-212 -51v-59h660v59zM811 579v79h-598v-80l58 -563h482zM389 78h-44l-49 493h93v-493zM548 78h-72v493h72v-493zM635 78v493h93l-49 -493h-44z" />
    <glyph glyph-name="icon_a1_delivery" unicode="&#xe616;" 
d="M746 663h-109v36q0 17 -12 28.5t-28 11.5h-477q-16 0 -28 -11.5t-12 -28.5v-274h864v42zM861 484h-174v135h47l127 -123v-12zM80 395v-106q0 -5 2 -9.5t5 -7.5t7.5 -5t9.5 -2h70q7 42 40 70t76.5 28t76.5 -28t41 -70h218q7 42 40 70t77 28t77 -28t40 -70h60q6 0 11.5 3.5
t9 9t3.5 11.5v106h-864zM291 157q-37 0 -62.5 26t-25.5 62.5t25.5 62.5t62 26t62.5 -26t26 -63q0 -18 -7 -34t-18.5 -28t-28 -19t-34.5 -7zM291 294q-20 0 -34.5 -14.5t-14.5 -34.5q0 -6 2 -12.5t5 -12t7.5 -9.5t10 -7.5t11.5 -5t13 -1.5q20 0 34 14t14 34q0 13 -6.5 24.5
t-17.5 18t-24 6.5zM743.5 157q-36.5 0 -62.5 26t-26 62.5t26 62.5t62.5 26t62.5 -26t26 -62.5t-26 -62.5t-62.5 -26zM744 294q-20 0 -34.5 -14.5t-14.5 -34.5q0 -13 6.5 -24t18 -17.5t24.5 -6.5q10 0 19 3.5t15.5 10t10 15.5t3.5 19t-3.5 19t-10 15.5t-15.5 10.5t-19 4z" />
    <glyph glyph-name="icon_a1_discount" unicode="&#xe617;" 
d="M512 880q-70 0 -136 -22t-119 -62t-93 -93t-61.5 -119t-21.5 -136q0 -117 57.5 -216.5t157 -157.5t216.5 -58t216.5 58t157 157.5t57.5 216.5t-57.5 216.5t-157 157.5t-216.5 58zM290 560q0 38 25 65q8 8 16.5 14.5t18.5 10.5t21 6.5t23 2.5q48 0 78 -34q25 -28 25 -66
t-25 -66q-8 -8 -16.5 -14.5t-18 -10.5t-20.5 -6t-23 -2q-49 0 -79 33q-4 4 -7 8.5t-5.5 8.5t-4.5 9t-3.5 10t-2.5 10t-1.5 10.5t-0.5 10.5zM414 246h-53l249 404h53zM709 271q-30 -34 -78 -34q-49 0 -79 34q-12 14 -18.5 30.5t-6.5 36.5q0 38 25 64q10 12 22.5 19.5t26.5 11
t30 3.5q48 0 78 -34q25 -27 25 -65.5t-25 -65.5zM631 385q-11 0 -19 -3.5t-14.5 -10.5t-9.5 -15.5t-3 -18.5q0 -21 13 -34q4 -5 9 -8t11 -4.5t13 -1.5q20 0 33 14q6 7 9 15.5t3 18.5q0 20 -12 34q-4 4 -9.5 7.5t-11 5t-12.5 1.5zM439 559q0 21 -12.5 34.5t-32.5 13.5
q-21 0 -34 -14q-4 -4 -6.5 -9.5t-4 -11.5t-1.5 -12q0 -22 12 -35q7 -7 15 -10.5t19 -3.5q20 0 32.5 14t12.5 34z" />
    <glyph glyph-name="icon_a1_document" unicode="&#xe618;" 
d="M512 880h-288v-864h576v576h-288v288zM538 480q37 0 67 -21v14h43v-97h-47v5q0 18 -9 31q-17 21 -51 21q-40 0 -62 -34q-13 -20 -19 -44h114v-34h-118v-10v-16h99v-33h-92q8 -23 17 -35q23 -31 64 -31q31 0 56 17q9 7 25 25l32 -38q-19 -23 -41 -35q-31 -17 -74 -17
q-71 0 -108 48q-20 27 -28 66h-39v33h35q-1 10 -1 15v11h-34v34h38q7 44 32 76q38 49 101 49zM548 880v-252h252z" />
    <glyph glyph-name="icon_a1_email" unicode="&#xe619;" 
d="M80 730l-1 -432l121 -122h616l126 127l1 427h-863zM841 298l-23 -26l-170 148l-140 -136l-136 141q-172 -141 -174 -143l-23 27l173 142l-169 176l46 45l284 -296l295 285l45 -46l-175 -170z" />
    <glyph glyph-name="icon_a1_express" unicode="&#xe61a;" 
d="M523 372h-73v23q0 6 -2 11t-5.5 8.5t-8.5 5.5t-10 2h-317q-5 0 -10 -2t-8.5 -5.5t-6 -8.5t-2.5 -11v-182h575v28zM600 253h-116v89h31l85 -81v-8zM80 193v-70q0 -5 2.5 -8.5t6 -5.5t7.5 -2h47q3 18 14 33t27.5 23.5t35.5 8.5q29 0 51 -18.5t27 -46.5h145q5 28 27 46.5
t51 18.5q15 0 28 -5t23.5 -13.5t17.5 -20.5t9 -26h40q4 0 7.5 2t6 5.5t2.5 8.5v70h-575zM220.5 35q-24.5 0 -41.5 17t-17 41.5t17 41.5t41.5 17t41.5 -17t17 -41.5t-17 -41.5t-41.5 -17zM220.5 126q-13.5 0 -23 -9.5t-9.5 -23t9.5 -23t23 -9.5t23 9.5t9.5 23t-9.5 23
t-23 9.5zM522 35q-25 0 -42 17t-17 41.5t17 41.5t41.5 17t41.5 -17t17 -41q0 -16 -7.5 -29.5t-21 -21.5t-29.5 -8zM522 126q-9 0 -16.5 -4.5t-12 -12t-4.5 -16t4.5 -16t12 -12t16.5 -4.5q13 0 22.5 9.5t9.5 23.5q0 3 -1 7t-2.5 7t-3.5 6t-5 5t-6 3.5t-7 2.5t-7 1zM740 413
l-117 84v1q0 20 -14 33l36 210q4 18 -9 21l-3 1q-3 0 -5.5 -1t-4.5 -3t-4 -5t-2 -6l-56 -209q-27 -11 -27 -41q0 -18 13 -31t31 -13l17 3l1 -1l128 -69q11 -6 17 5l2 3q5 11 -3 18zM578 468q-8 0 -15 4t-11 11t-4 15q0 12 8.5 21t21.5 9q8 0 15 -4t11 -11t4 -15
q0 -12 -9 -21t-21 -9zM697 159v46q93 32 148.5 115t55.5 184q0 130 -92 222.5t-223 92.5q-64 0 -122 -25t-100.5 -67t-67.5 -100.5t-25 -122.5q0 -24 4 -47h-42q-4 26 -4 47q0 58 18 112.5t51.5 98.5t77 77t98 51t112.5 18t112.5 -18t98.5 -51t77 -77t51.5 -98.5
t18.5 -112.5q0 -133 -93 -239q-66 -75 -154 -106z" />
    <glyph glyph-name="icon_a1_facebook" unicode="&#xe61b;" 
d="M897 881h-770q-13 0 -24 -6.5t-17.5 -17.5t-6.5 -24v-770q0 -20 14 -34t34 -14h415v335h-113v131h113v97q0 82 45.5 127t122.5 45q62 0 101 -5v-117h-70q-26 0 -40.5 -8.5t-19 -21.5t-4.5 -33v-84h129l-17 -131h-112v-335h220q20 0 34 14t14 34v770q0 10 -3.5 19
t-10 15.5t-15.5 10t-19 3.5z" />
    <glyph glyph-name="icon_a1_faq" unicode="&#xe61c;" 
d="M88 191h403v-109h-403v109zM88 437h403v-109h-403v109zM88 684h253v-109h-253v109zM806 819h-184l-131 -133v-95h112v47l65 67h92l65 -67v-95l-65 -66h-102v-174h111v60h37l130 133v189zM658 191h111v-114h-111v114z" />
    <glyph glyph-name="icon_a1_feedback" unicode="&#xe61d;" 
d="M944 880h-864v-648h216v-216l270 216h378v648zM545 347h-66v66h66v-66zM545 477h-66l-21 295h108z" />
    <glyph glyph-name="icon_a1_festnetz" unicode="&#xe61e;" 
d="M512 265q-16 0 -27.5 -12t-11.5 -28t11.5 -27.5t27.5 -11.5t27.5 11.5t11.5 27.5t-11.5 28t-27.5 12zM512 448q-95 0 -162 -68l-2 -1l37 -36l1 1q52 52 126 52t126 -52l1 -1l37 36l-2 1q-21 22 -47 37t-55 23t-60 8zM512 360q-59 0 -101 -42l-1 -1l37 -36l1 1
q26 27 64 27q18 0 34.5 -7t29.5 -20l1 -1l37 36l-1 1q-42 42 -101 42zM736 442q-45 45 -103 69t-121 24q-131 0 -224 -93l-1 -1l36 -37l1 2q78 77 188 77t188 -77l1 -2l36 37zM561 803h-98l-99 -70v36h-176v-161l-108 -76v-84h108v-355h648v355h108v84zM776 509v-355h-528
v355h-96l96 68v131h55v-93l180 127h58l332 -233h-97z" />
    <glyph glyph-name="icon_a1_googleplus" unicode="&#xe61f;" 
d="M412 371q-3 1 -10.5 0.5t-20.5 -1.5q-8 -1 -16 -2.5t-16.5 -4t-16.5 -4.5q-6 -3 -17 -7q-5 -3 -10.5 -6.5t-11.5 -7.5q-11 -10 -18 -24q-9 -15 -9 -36q0 -41 37 -68q36 -26 97 -27q55 1 84 24q29 24 29 60q0 15 -5 28t-15 24q-20 21 -64 52h-17zM417 706q-9 7 -19.5 10.5
t-22.5 3.5q-11 0 -20.5 -3t-17.5 -8.5t-15 -14.5q-18 -26 -17 -58q0 -21 6 -43t19 -45q12 -22 31 -36q6 -5 13 -8.5t14.5 -5t15.5 -1.5q31 1 51 22q4 5 6.5 10t4 10t2.5 10q2 16 2 27q0 46 -24 93q-11 23 -29 37zM897 881h-770q-13 0 -24 -6.5t-17.5 -17.5t-6.5 -24v-770
q0 -20 14 -34t34 -14h770q20 0 34 14t14 34v770q0 20 -14 34t-34 14zM499 704q9 -9 17 -22t15 -30q5 -17 5 -40q-1 -42 -19 -67q-4 -6 -8.5 -12t-9.5 -11q-6 -5 -11.5 -10t-11.5 -11q-7 -7 -13 -16q-7 -10 -7 -22q0 -13 7 -21q6 -7 12 -13l26 -22q25 -20 44 -44
q17 -25 18 -65q0 -57 -50 -101q-52 -45 -150 -47q-82 1 -122 35q-41 32 -41 77q0 21 13 48t47 47q38 22 79 29q42 6 69 7q-4 5 -8 11t-7 13q-8 12 -8 29q0 5 1 9.5t2 7.5q3 8 5 14q-3 -1 -6.5 -1h-6.5t-6 -0.5t-6 -0.5q-62 1 -95 40q-34 36 -34 83q0 58 48 105q34 27 69 36
q36 7 67 7h156l-48 -28h-48q7 -5 16 -14zM824 454h-84v-82h-48v82h-82v2h-1v46h83v84h48v-84h82h2v-48z" />
    <glyph glyph-name="icon_a1_handy" unicode="&#xe620;" 
d="M649 827l-4 54h-54l-4 -54h-277v-469l40 -341h324l40 341v469h-65zM446 111h-61v38h61v-38zM446 212h-61v38h61v-38zM446 313h-61v38h61v-38zM542 111h-60v38h60v-38zM542 212h-60v38h60v-38zM542 313h-60v38h60v-38zM639 111h-61v38h61v-38zM639 212h-61v38h61v-38z
M639 313h-61v38h61v-38zM649 423h-274v328h274v-328z" />
    <glyph glyph-name="icon_a1_help" unicode="&#xe621;" 
d="M622 880h-220l-156 -156v-110h133v55l78 78h110l78 -78v-110l-78 -78h-121v-201h132v68h44l156 156v220zM446 149h132v-133h-132v133z" />
    <glyph glyph-name="icon_a1_lock_ssl" unicode="&#xe622;" 
d="M293 19v55h19v-5q0 -12 6 -20q6 -7 18 -11q9 -3 22 -3q21 0 32 10q11 9 11 23q0 15 -11 23q-2 2 -4.5 3t-5 2.5t-6 2.5t-9.5 2.5l-14 3.5q-22 6 -30 10q-17 8 -22 21q-4 8 -4 19q0 22 14 36q15 15 42 15q25 0 41 -15v11h18v-54h-19v4q0 12 -5 20q-5 7 -15 11q-9 3 -19 3
q-17 0 -26 -9q-9 -8 -9 -20q0 -14 11 -21q8 -5 33 -11q12 -3 20 -5.5t13 -4.5q29 -14 29 -45q0 -24 -16 -39q-16 -16 -49 -16q-28 0 -47 15v-11h-18zM454 19v55h19v-5q0 -12 6 -20q6 -7 17 -11q10 -3 22 -3q22 0 33 10q10 9 10 23q0 15 -11 23q-2 2 -4 3l-5 2.5t-6 2.5
q-2 1 -5.5 2t-8 2t-9.5 2q-22 6 -31 10q-16 8 -22 21q-4 8 -4 19q0 22 14 36q15 15 42 15q26 0 42 -15v11h18v-54h-19v4q0 12 -5 20q-5 7 -15 11q-9 3 -20 3q-16 0 -26 -9q-9 -8 -9 -20q0 -14 12 -21q7 -5 33 -11q12 -3 20 -5.5t13 -4.5q28 -14 28 -45q0 -24 -15 -39
q-17 -16 -49 -16q-29 0 -47 15v-11h-18zM626 38v145h-18v19h60v-19h-20v-145h64v32h19v-51h-123v19h18zM682 643v68q0 70 -49.5 120t-119.5 50h-3q-46 0 -85 -23t-61.5 -62t-22.5 -85v-68h-49v-363h440v363h-50zM410 711q0 14 3.5 27t10 24t15.5 20t20 15.5t24 10.5t27 4h3
q41 0 70.5 -29.5t29.5 -71.5v-68h-203v68zM546 443v-72q0 -12 -8 -20t-19 -8h-18q-11 0 -19 8t-8 20v72q-19 17 -19 42q0 23 16 39t39 16t39 -16t16 -39q0 -12 -5 -23t-14 -19z" />
    <glyph glyph-name="icon_a1_login" unicode="&#xe623;" 
d="M815 608v157l-113 114h-380l-113 -114v-157h-95v-306l69 -285h658l69 285v306h-95zM512 608h-213l1 119l58 59h308l58 -59l1 -119h-213zM567 262v-128h-112v128q-22 14 -35.5 38t-13.5 51q0 15 3.5 28.5t10.5 25t17 21.5t21.5 17t25 10.5t27.5 3.5q44 0 75 -31t31 -75
q0 -27 -13.5 -51t-36.5 -38z" />
    <glyph glyph-name="icon_a1_lupe" unicode="&#xe624;" 
d="M944 123l-226 227l48 47v284l-201 201h-284l-200 -201v-284l200 -200h284l48 47l226 -226zM528 286h-210l-149 148v210l149 149h210l149 -149v-210z" />
    <glyph glyph-name="icon_a1_mein-a1" unicode="&#xe625;" 
d="M586 513q55 70 55 192q0 105 -43 176h-172q-43 -71 -43 -176q0 -122 54 -192h149zM850 15l-87 426h-502l-87 -426h676z" />
    <glyph glyph-name="icon_a1_menu" unicode="&#xe626;" 
d="M80 736h864v-115h-864v115zM80 506h864v-116h-864v116zM80 275h864v-115h-864v115z" />
    <glyph glyph-name="icon_a1_minus" unicode="&#xe627;" 
d="M78 520h868v-144h-868v144z" />
    <glyph glyph-name="icon_a1_mobile" unicode="&#xe628;" 
d="M147 880v-621l58 -243h617l57 243v621h-732zM223 811h580v-679h-580v679zM541 70q0 -5 -2 -10.5t-6 -9t-9 -6t-11 -2.5q-12 0 -20 8.5t-8 20t8 20t20 8.5t20 -8.5t8 -20.5z" />
    <glyph glyph-name="icon_a1_money" unicode="&#xe629;" 
d="M513 880q-117 0 -216.5 -57.5t-157 -157t-57.5 -216.5t57.5 -216.5t157 -157t216.5 -57.5t216 57.5t157 157t58 216.5t-58 216.5t-157 157t-216 57.5zM608 274q-39 -23 -92 -23q-95 0 -138 67q-24 36 -32 79h-50v32h47q-1 7 -1.5 13t-0.5 11q0 8 1 17h-46v32h49
q8 51 35 91q46 70 133 70q56 0 93 -31v22h40v-115h-42v7q0 27 -11 42t-33 24q-20 8 -45 8q-63 0 -97 -54q-16 -27 -23 -64h161v-32h-164q-1 -9 -1 -16q0 -11 1 -25h142v-32h-137q9 -30 21 -50q33 -53 99 -53q43 0 76 24q13 9 34 35l30 -33q-23 -31 -49 -46z" />
    <glyph glyph-name="icon_a1_network" unicode="&#xe62a;" 
d="M833 501q-31 0 -54 -21t-26 -52h-92q-4 40 -24 74t-51 56l96 168q19 -9 39 -8t37.5 11.5t28.5 29.5q17 29 8 62t-38 50t-61.5 8t-49.5 -38q-9 -17 -10.5 -36t6 -36.5t21.5 -29.5l-96 -168q-10 5 -20 9t-20.5 6.5t-22 4t-22.5 1.5q-14 0 -27.5 -2t-26 -6t-24.5 -9l-61 107
q13 13 19 30t5 35t-11 35q-16 29 -49 38t-62 -8t-37.5 -50t8.5 -62q11 -20 30 -31t39.5 -10.5t41.5 11.5l1 1l60 -105q-36 -22 -58.5 -58t-27.5 -80h-32q-2 13 -6.5 24t-12 20t-17.5 15.5t-21.5 10t-23.5 3.5q-22 0 -41 -11t-29.5 -29.5t-10.5 -41.5q0 -34 23.5 -57.5
t57.5 -23.5q20 0 38 9.5t29 26t14 36.5h31q0 -32 11 -61.5t30 -53t45 -40.5l-48 -82q-28 13 -58 3.5t-46 -37.5q-16 -29 -7.5 -62t37.5 -50t61.5 -8.5t49.5 38.5q15 26 10 55t-27 48l48 84q8 -4 17 -7t18.5 -5t19.5 -3t20 -1q46 0 86 22l18 -30q-23 -19 -28 -48.5t10 -55.5
q16 -30 48.5 -38.5t62.5 8.5q14 8 23.5 21.5t13.5 28.5t2.5 31.5t-10.5 30.5q-16 29 -47.5 38t-59.5 -6l-17 30q17 12 31.5 28.5t25 35.5t16 41t5.5 45h91q3 -31 26 -52t54 -21q23 0 41.5 11t29.5 30t11 41.5t-11 41t-29.5 29.5t-41.5 11z" />
    <glyph glyph-name="icon_a1_network-new" unicode="&#xe62b;" 
d="M892 725h48v151h-151v-151h48v-152l-97 -97h-200v248q23 8 38.5 29t15.5 48q0 22 -11 40.5t-30 29.5t-41 11q-34 0 -58 -24t-24 -57q0 -27 15.5 -48t38.5 -29v-248h-200l-97 97v152h48v151h-151v-151h48v-175l102 -102l-102 -102v-175h-48v-151h151v151h-48v152l98 98
h199v-249q-23 -8 -38.5 -29t-15.5 -47q0 -34 24 -58t58 -24t58 24t24 58q0 26 -15.5 47t-38.5 29v249h199l98 -98v-152h-48v-151h151v151h-48v175l-102 102l102 102v175z" />
    <glyph glyph-name="icon_a1_overview" unicode="&#xe62c;" 
d="M80 880h235v-235h-235v235zM394 880h237v-235h-237v235zM709 880h235v-235h-235v235zM80 566h235v-237h-235v237zM394 566h237v-237h-237v237zM709 566h235v-237h-235v237zM80 251h235v-235h-235v235zM394 251h237v-235h-237v235zM709 251h235v-235h-235v235z" />
    <glyph glyph-name="icon_a1_pdf" unicode="&#xe62d;" 
d="M822 360q-3 3 -3 6q-6 13 -20 18q-26 9 -67 9h-12h-12t-11.5 -0.5t-11.5 -1t-11.5 -1t-11.5 -1.5t-11 -1h-2q-6 -2 -9 0q-27 16 -33 22q-53 44 -85 125q-2 5 -1 9q2 8 8 45q0 4 1.5 13.5t2 15t1.5 14t1.5 14.5t1 13.5t0.5 14.5q0 4 0.5 8.5t0 8.5t-1.5 8t-3 8.5t-4 7.5
q-10 16 -23 17q-14 1 -23 -1q-11 -2 -17.5 -8.5t-9.5 -16.5q-6 -31 0 -77q3 -20 22 -99q1 -6 0 -10q-3 -6 -8 -18.5t-8 -18.5q-44 -93 -88 -170l-5 -5l-12 -6q-2 -1 -3 -2t-2.5 -1.5t-3 -1.5t-2.5 -2q-56 -28 -87 -62q-18 -19 -25 -38q-6 -21 7 -29q15 -9 28 -11
q25 -5 52 19q24 21 53 63q6 10 13 21t12.5 20t12.5 22q2 2 5 3q10 3 29.5 8.5t28.5 8.5q63 17 135 30h2q5 2 11.5 1.5t11.5 -3.5q8 -5 17 -9.5t18.5 -8t18.5 -7t19 -6.5q23 -7 41.5 -10.5t37.5 -2.5q27 1 35 28q2 13 0 28zM269 181q0 9 16.5 30.5t35 40t26.5 20.5
q-43 -65 -78 -91zM347 273q-1 2 1 4l2 2q1 -4 -3 -6zM494 702v4.5t1 5t3 1.5q6 0 10 -10t6 -21.5t2 -22.5q1 -36 -13 -64q-5 10 -7 30q-5 51 -2 77zM430 334q2 7 8 15q8 16 15.5 30.5t15.5 30t15 31t13 30.5q2 4 3 4t3 -3q31 -55 79 -94q0 -1 1 -2q-87 -16 -153 -42z
M803 340.5q-1 -3.5 -8 -5.5q-20 -4 -52 7q-19 6 -44 17v3h30q32 1 54 -5q12 -4 17 -9q4 -4 3 -7.5zM740 1024h-622v-791v-233h788v755zM167 48v210v712h540v-264h152v-657h-692v-1v0z" />
    <glyph glyph-name="icon_a1_pin" unicode="&#xe62e;" 
d="M710 801.5q-82 79.5 -198 79.5t-198 -79q-23 -23 -40.5 -49.5t-27 -54.5t-13 -58t0 -59.5t13 -58t27 -55t40.5 -48.5l21.5 -21.5t47.5 -57.5t60 -89.5t47.5 -110t21.5 -125.5q0 35 7 71t18.5 67.5t26 62.5t31 57t33 49t31.5 40.5t26.5 30.5t18.5 19l6 7q82 79 82 191
t-82 191.5zM511.5 502q-46.5 0 -79 31.5t-32.5 76.5t32.5 77t79.5 32t79.5 -32t32.5 -77t-33 -76.5t-79.5 -31.5z" />
    <glyph glyph-name="icon_a1_play" unicode="&#xe62f;" 
d="M80 880v-864h864v864h-864zM382 265v366l316 -183z" />
    <glyph glyph-name="icon_a1_play-hollow" unicode="&#xe630;" 
d="M80 880v-864h864v864h-864zM883 77h-742v742h742v-742zM387 624v-352l304 176z" />
    <glyph glyph-name="icon_a1_plus" unicode="&#xe631;" 
d="M584 520v362h-144v-362h-362v-144h362v-362h144v362h362v144h-362z" />
    <glyph glyph-name="icon_a1_powerline" unicode="&#xe632;" 
d="M469 435q0 -18 12.5 -30.5t30.5 -12.5q9 0 17 3.5t13.5 9t9 13.5t3.5 17q0 18 -12.5 30.5t-30.5 12.5q-12 0 -21.5 -6t-15.5 -15.5t-6 -21.5zM651 563l40 40l-2 1q-73 74 -177 74q-50 0 -96 -19t-81 -55l-2 -1l40 -40l2 1q18 19 40 31.5t46.5 19t50.5 6.5q81 0 137 -57z
M583 496l40 39l-1 2q-15 14 -32.5 24.5t-37 15.5t-40.5 5q-64 0 -110 -45l-1 -2l40 -39l1 1q29 29 70 29q13 0 25.5 -3.5t24 -10t20.5 -15.5zM718 631l40 39l-1 2q-33 32 -72 55t-83 34.5t-90 11.5q-143 0 -245 -101l-1 -2l40 -39l1 1q85 85 205 85q58 0 111 -22t94 -63z
M363 181l-52 -29v-61h402v61l-52 29h-298zM718 805l67 -67h106v-392h-758v392h113l67 67h-247v-296l79 -284h734l79 284v296h-240zM512 255q-14 0 -24 10t-10 24t10 24t24 10t24 -10t10 -24t-10 -24t-24 -10z" />
    <glyph glyph-name="icon_a1_present" unicode="&#xe633;" 
d="M215 590h269v-255h-269v255zM540 590h269v-255h-269v255zM215 270h269v-255h-269v255zM540 270h269v-255h-269v255zM497 630h-128q-52 1 -88.5 37.5t-36.5 88.5t37 89t89.5 37t89.5 -37t37 -89v-126zM369 675h83v82q-1 33 -24.5 56.5t-56.5 23.5q-34 0 -58 -24t-24 -57
t23.5 -57t56.5 -24zM637 630h-110v111q0 30 15 55t40 39t55 14q22 0 42.5 -8.5t35 -23t23.5 -35t9 -42.5q0 -46 -32.5 -78t-77.5 -32zM572 675h65q13 0 25 5t21 14t14 20.5t5 25.5q0 27 -19 46t-46 19t-46 -19t-19 -45v-66z" />
    <glyph glyph-name="icon_a1_present-new" unicode="&#xe634;" 
d="M320 489q0 44 31 75.5t75 31.5q35 0 64 -21v303h-274l-131 -109v-344h255q-20 29 -20 64zM325 185l-32 32l163 164h-371v-363h405v333zM803 878h-269v-303q29 21 64 21q21 0 41 -8.5t34 -23t22.5 -34t8.5 -41.5q0 -35 -20 -64h255v338zM426 426q-16 0 -30.5 8.5t-23 23
t-8.5 31.5t8.5 31.5t23 23t30.5 8.5q26 0 44.5 -18.5t18.5 -44.5t-18.5 -44.5t-44.5 -18.5zM598 426q-17 0 -31.5 8.5t-22.5 23t-8 31.5q0 26 18 44.5t43.5 18.5t44 -18.5t18.5 -44.5t-18.5 -44.5t-43.5 -18.5zM731 217l-32 -32l-165 166v-333h405v363h-371zM426.5 552
q-25.5 0 -44 -18.5t-18.5 -44.5t18.5 -44.5t44 -18.5t44 18.5t18.5 44.5t-18.5 44.5t-44 18.5zM598 552q-13 0 -24.5 -5t-20 -13.5t-13 -20t-4.5 -24.5q0 -26 18 -44.5t43.5 -18.5t44 18.5t18.5 44.5t-18.5 44.5t-43.5 18.5z" />
    <glyph glyph-name="icon_a1_print-new" unicode="&#xe635;" 
d="M79 881v-866h866v866h-866zM769 426l-75 -70h-35v-128h-294v128h-38l-72 67v153h110v92h294v-92h110v-150zM659 448h-294v37h-36v-74h366v74h-36v-37z" />
    <glyph glyph-name="icon_a1_protection" unicode="&#xe636;" 
d="M460 600q-1 -3 -2.5 -6.5l-3 -7t-2.5 -7.5q5 -1 11 -2t12 -1.5t12.5 -1t12.5 -0.5v69q-22 -8 -40 -43zM500 390q-25 -1 -48 -6q2 -5 4 -10.5t4 -10.5q9 -17 19 -28t21 -15v70zM524 574q8 0 16.5 0.5t16.5 2t15 2.5q-2 6 -4 11l-4 10q-18 35 -40 43v-69v0zM564 363
q4 10 8 21q-23 5 -48 6v-70q22 10 40 43zM569 635l4 -6l4 -6l4 -6t3 -6q2 -4 4 -8.5t3.5 -9t3.5 -9.5q18 6 33 13q-25 25 -59 38zM500 493v58q-28 1 -55 6q-3 -10 -4.5 -20.5t-2.5 -21.5l-2 -22h64zM524 551v-58h64q-1 34 -9 64q-6 -1 -13 -2.5t-14 -2l-14 -1t-14 -0.5z
M524 470v-57q14 -1 28 -2.5t27 -3.5q8 29 9 63h-64zM500 413v57h-64q1 -17 3 -33t6 -30q27 5 55 6zM628 367q-15 7 -33 12q-5 -14 -11 -26q-7 -14 -15 -24q34 12 59 38zM602 562q8 -32 9 -69h64q-3 48 -32 86q-18 -10 -41 -17zM396 597q15 -7 33 -13q5 15 11 27q6 13 15 24
q-12 -4 -22 -10t-19.5 -13t-17.5 -15zM865 769l-17 3.5l-17 3.5h-1t-3.5 0.5t-6 1t-7.5 0.5q-18 3 -22 4q-1 0 -4 0.5t-7.5 1.5t-10.5 2q-18 3 -21 4q-2 0 -6 1t-9 2q-12 3 -24 6.5t-20 5.5l-12 4q-3 1 -5 1.5t-4 1.5q-11 4 -16 6q-12 4 -19 6.5t-19 8t-13 5.5t-26 12
t-29 14t-17 9l-14 7h-6l-13 -7q-13 -7 -22 -11t-18 -9q-10 -4 -20 -9q-11 -5 -12 -5.5t-13 -5.5q-3 -2 -6.5 -3t-6.5 -2.5t-6.5 -3t-7.5 -2.5q-14 -6 -19 -7l-10 -4q-5 -1 -14 -4q-10 -3 -22.5 -7t-30 -8t-28.5 -5.5t-35 -6.5q-13 -2 -22 -3.5l-15 -2.5q-13 -2 -19 -3
q-7 -1 -9 -2l-1 -1v-16v-9.5v-12.5t0.5 -15.5t1.5 -18.5q0 -20 1 -34t1 -23q1 -17 2 -32.5t3 -45.5q1 -16 2 -25t1 -12q1 -6 4 -25q2 -6 3 -11.5t2 -9.5t1 -8q3 -10 8 -30.5t9 -34.5q1 -3 2 -6.5t2.5 -7t2.5 -6.5t2 -7l3.5 -10.5l2.5 -7.5q1 -2 1.5 -4t1.5 -4l2 -4t2 -5
l4 -11l4.5 -10t6.5 -15q1 -2 2 -3.5t2 -3.5l2 -4q3 -6 9 -17t7.5 -13.5t6.5 -10.5t6 -10q1 -1 2 -3t3 -5q0 -1 2 -3.5t3 -4.5l4 -6l3 -4.5t2 -3.5q2 -2 4 -6q3 -3 4 -5t4 -5q1 -3 4 -6l1.5 -3t1.5 -2l2 -2l4 -6q1 -2 3 -4t3 -4q5 -5 6 -7q2 -3 12.5 -14t13.5 -14t10 -10.5
t8 -8.5t9.5 -8.5t11 -9.5t11.5 -10t14 -12q4 -4 11 -9l10 -9q4 -3 6.5 -5t5.5 -4t10 -6.5t9.5 -6l7.5 -4.5t6 -4t9 -5q3 -2 5 -3t3.5 -1.5t2.5 -1.5q2 -1 3.5 -1.5t3.5 -0.5l3 -1l2 1q3 1 9.5 4t11.5 5.5t6 3.5t4.5 3t6 3.5t5.5 3.5q1 1 3 2.5t6 3.5q7 4 10 6l6 4t8.5 7
t8.5 8q4 2 6 4t10 9t10 9t11.5 10t11.5 10l10 10q8 7 18 18t17.5 19t9.5 11q2 4 5 8q2 2 3.5 4t2.5 4q3 4 6 7.5t4 6.5q1 1 2 2.5t3 3.5q2 4 5 8q1 2 2 3t2 2.5t2 2.5q2 3 5.5 9t5.5 8.5t7.5 12.5t7.5 12.5t9 16t8.5 15.5t7.5 15.5l10 22.5q3 9 6 15.5t7 17.5q1 4 2 7l2 6
t2 5q1 5 2.5 9.5t2.5 6.5q1 3 4 15q2 7 3.5 12.5t2.5 11.5q1 2 1.5 4l1 4l1 4l1 4t1 4.5t0.5 4.5q1 5 2.5 10t2.5 9.5t2 9.5q2 14 5 30q1 8 1.5 17.5t1.5 20.5q2 23 5 79t3 91zM684 409q-7 -17 -17 -31.5t-23 -27.5q-26 -26 -59 -40q-7 -3 -14 -5.5t-14.5 -4l-15 -3
t-14.5 -2t-15 -0.5q-38 0 -73 15q-33 14 -59 40q-5 5 -9.5 10.5t-9 11.5t-8 12l-7 12t-6.5 13q-15 35 -15 73t15 72q14 34 40 60q13 12 28 22.5t31 17.5q35 14 73 14t73 -14q6 -3 12.5 -6.5t12.5 -7t12 -8t11.5 -9t10.5 -9.5q26 -26 40 -60q15 -34 15 -72q-1 -39 -15 -73z
M611 470q-1 -36 -9 -69q4 -1 8.5 -2.5l9 -3t8.5 -3t8 -3.5t7 -4q14 18 22 40t10 45h-64zM413 493q0 9 1 18t2 17.5t2.5 17t3.5 16.5q-23 7 -41 17q-29 -38 -32 -86h64zM422 401q-8 33 -9 69h-64q3 -47 32 -85q18 10 41 16zM455 329q-8 10 -15 24q-6 12 -11 26
q-18 -5 -33 -12q25 -26 59 -38z" />
    <glyph glyph-name="icon_a1_settings" unicode="&#xe637;" 
d="M725 428q-1 1 -3 4.5t-4 5.5q-1 1 -7 9l-62 -23q-5 5 -10.5 9l-11 8t-11.5 7l4 66q-5 2 -10.5 4t-10.5 4l-42 -50q-20 4 -41 5l-29 58q-6 0 -12 -1t-11 -2l-11 -65q-19 -5 -38 -16l-54 36q-1 0 -4.5 -2.5t-5.5 -3.5l-4.5 -4.5t-4.5 -3.5l23 -62q-7 -7 -13 -15.5
t-11 -16.5l-66 3q-5 -10 -9 -21l51 -42q-2 -10 -3.5 -20t-1.5 -21l-59 -29q1 -6 2 -11.5t2 -11.5l65 -11q6 -20 16 -37l-36 -55q0 -1 2.5 -4.5t4 -5.5t4 -5t3.5 -4l62 23q15 -14 32 -24l-4 -66q12 -5 22 -8l42 50q20 -4 40 -5l30 -58q12 1 23 3l11 65q9 3 18.5 7t18.5 9
l55 -36q1 1 4.5 3t5.5 3q1 2 4 4.5t4 3.5l-22 62q13 15 24 32l66 -3q4 10 8 21l-50 42q2 10 3 20t1 21l59 29q-1 13 -3 23l-65 11q-3 10 -7 19t-9 18zM572 201q-31 -24 -70 -19.5t-63.5 35t-20 70t35.5 64t70 19.5t63.5 -35.5t20 -70t-35.5 -63.5zM902 796l-1 1.5l-2 3
t-2 2.5t-3 3.5t-3 3.5l-49 -18q-4 4 -8 7t-8.5 6.5t-9.5 5.5l4 52q-9 4 -18 7l-33 -40q-15 4 -32 4l-23 46q-10 -1 -18 -2l-9 -52q-15 -4 -30 -12l-43 28q-1 0 -2.5 -1l-3 -2t-2.5 -2l-2 -2l-2.5 -2.5t-2.5 -1.5l18 -49q-5 -6 -10 -12.5t-9 -13.5l-52 3q-4 -8 -7 -17l40 -33
q-2 -8 -3 -16t-1 -16l-46 -24q0 -4 1 -8.5t1 -9.5l52 -9q1 -3 2.5 -7t3 -7.5t3.5 -7.5t4 -7l-29 -43q1 -1 2 -2.5l2 -3t1.5 -2.5t1.5 -2.5t2.5 -2.5t1.5 -2l49 18q12 -11 26 -19l-3 -52q9 -4 17 -7l33 40q8 -2 16 -3t16 -1l24 -46q10 1 18 2l9 52q7 2 14.5 5t14.5 7l44 -28
q1 0 2.5 1t2.5 2l2 2t2.5 2t2.5 2l2 2l-18 49q4 4 7.5 8.5t6.5 8.5t5 9l53 -3q3 7 6 17l-40 33q4 16 4 32l47 24q-1 8 -3 18l-51 9q-5 15 -13 29zM781 615q-24 -19 -55 -15.5t-50 28.5q-8 9 -12 20.5t-4.5 23t2.5 23t9.5 21.5t16.5 18q16 12 36 15t38.5 -4.5t31.5 -23.5
q29 -36 9 -78q-8 -17 -22 -28zM346 653q-1 0 -2 2t-2 3l-2.5 2.5t-1.5 2.5l-35 -13q-9 8 -18 14l2 36q-5 3 -12 5l-23 -28q-4 1 -7.5 1.5t-7.5 1t-7 0.5l-17 32q-7 -1 -13 -2l-6 -36q-5 -1 -10.5 -3.5t-9.5 -5.5l-31 21l-2.5 -2.5t-2.5 -2t-3 -2t-2 -2.5l12 -34
q-7 -8 -13 -18l-37 2q-2 -5 -4 -12l28 -23q-3 -11 -3 -23l-33 -16q1 -2 1 -4t0.5 -4.5t0.5 -4.5l36 -6q4 -11 9 -21l-20 -30q1 -1 2 -3l2 -2q1 -1 2.5 -3l1.5 -2l35 12q8 -7 18 -13l-2 -37q4 -2 11 -5l24 29q5 -2 11 -2.5t11 -0.5l17 -33q7 1 12 2l7 36q10 3 20 9l31 -20
q1 1 3 2l2 2q1 0 2.5 1.5l2.5 2.5l-13 34q8 9 14 18l36 -2q2 3 5 12l-28 24q3 11 3 22l32 17v3.5t-0.5 4t-0.5 4.5l-36 7q-2 5 -4.5 10t-4.5 10zM261 526q-17 -13 -39 -10.5t-35 19.5q-4 5 -7 10.5t-4 11t-1 11.5t1.5 11.5t4 11t6 10t8.5 8.5q17 14 39 11.5t35 -19.5
q9 -12 11 -26t-3 -27t-16 -22z" />
    <glyph glyph-name="icon_a1_share-new" unicode="&#xe638;" 
d="M79 881v-866h866v866h-866zM768 537h-158v14l-196 -98v-25l196 -88v19h158v-157h-158v89l-196 88v-20h-158v158h158v-14l196 98v93h158v-157z" />
    <glyph glyph-name="icon_a1_speedmeter" unicode="&#xe639;" 
d="M519 431q-1 0 -3.5 0.5t-3.5 0.5q-19 0 -36 -10t-26.5 -26.5t-9.5 -35.5q0 -30 21 -51t51 -21q15 0 28 5.5t23 15t15.5 23t5.5 28.5v4l-1 3l134 198l-49.5 -33.5t-98.5 -67.5zM512 791q-117 0 -216.5 -57.5t-157.5 -157t-58 -216.5q0 -141 83 -255l58 42q-57 78 -67 177
h34v72h-34q11 107 80 191l22 -23l51 51l-23 23q85 69 192 80v-35h72v35q54 -6 102.5 -26.5t89.5 -53.5l-23 -23l51 -51l22 23q69 -84 80 -191h-34v-72h34q-10 -99 -67 -177l58 -42q40 55 61.5 120.5t21.5 134.5q0 117 -58 216.5t-157.5 157t-216.5 57.5z" />
    <glyph glyph-name="icon_a1_star" unicode="&#xe63a;" 
d="M808 46l-97 300l234 170l-17 64h-293l-96 294h-54l-96 -294h-293l-17 -64l234 -170l-98 -300l49 -24l248 180l248 -180z" />
    <glyph glyph-name="icon_a1_telefon" unicode="&#xe63b;" 
d="M685 550h-346l-148 -114l-12 -222h666l-12 222zM444 274h-62v39h62v-39zM444 357h-62v39h62v-39zM444 440h-62v39h62v-39zM543 274h-62v39h62v-39zM543 357h-62v39h62v-39zM543 440h-62v39h62v-39zM642 274h-62v39h62v-39zM642 357h-62v39h62v-39zM642 440h-62v39h62v-39
zM781 682h-538l-164 -77l21 -125h104l135 112h346l135 -112h104l21 125z" />
    <glyph glyph-name="icon_a1_tipp" unicode="&#xe63c;" 
d="M610 175h-204l-118 289v5q0 3 0.5 8t2 17.5t4 25.5t7.5 31t12 34t19 34t26 32q28 28 65.5 42.5t83.5 14.5q92 0 149 -57q20 -20 34 -46t21 -47t10.5 -43.5t4 -31.5t0.5 -14v-5zM437 222h142l102 251q-1 15 -3 31.5t-13 46.5t-28 53t-50.5 40t-78.5 17q-73 0 -116 -43
q-14 -14 -25 -32.5t-16.5 -34.5t-9.5 -33.5t-5 -27t-1 -17.5zM583 93l26 15v30h-202v-30l26 -15h150zM564 17l26 14v30h-164v-30l26 -14h112zM490 879h40v-133h-40v133zM755 630l-28 28l96 97l29 -28zM124 415l-8 39l130 27l8 -39zM900 415l-130 27l8 39l130 -27zM271 630
l-96 97l28 28l96 -97z" />
    <glyph glyph-name="icon_a1_tv" unicode="&#xe63d;" 
d="M367 189l-49 -28v-58h388v58l-50 28h-289zM575 450h24l43 137h14v24h-60v-24h16l-19 -64q0 -2 -0.5 -3.5t-1 -3.5l-1 -4t-1 -3.5t-1 -3.5l-1 -4t-0.5 -4q-2 11 -7 26l-21 64h15v24h-60v-24h14zM396 587h26v-112h-23v-25h76v25h-23v112h25v-21h26v45h-132v-45h25v21z
M80 793v-286l77 -275h710l76 275v286h-863zM512 261q-14 0 -23.5 9.5t-9.5 23.5t9.5 23.5t23 9.5t23.5 -9.5t10 -23.5q0 -4 -1 -7.5t-2.5 -7t-4 -6.5t-5 -5t-6 -3.5t-7 -2.5t-7.5 -1zM879 349h-734v380h734v-380z" />
    <glyph glyph-name="icon_a1_tv-empty" unicode="&#xe63e;" 
d="M367 189l-49 -28v-58h388v58l-49 28h-290zM80 793v-286l77 -275h710l77 275v286h-864zM512 261q-3 0 -5.5 0.5l-5 1t-4.5 2t-4.5 3t-4 3t-3 3.5t-2.5 4.5l-2 5t-1.5 5t-0.5 5.5q0 9 4.5 16.5t12 12t16.5 4.5q4 0 7.5 -1t7 -2.5t6 -4l5 -5t4 -6t2.5 -7t1 -7.5
q0 -14 -9.5 -23.5t-23.5 -9.5zM879 349h-734v380h734v-380z" />
    <glyph glyph-name="icon_a1_twitter" unicode="&#xe63f;" 
d="M79 881v-866h866v866h-866zM710 547q0 -75 -28.5 -136.5t-75 -97t-102 -52.5t-115 -7.5t-109.5 43.5q3 -1 8.5 -1t23 1t34 4.5t38.5 12.5t40 24q-3 0 -8 0.5t-18.5 4t-25 10t-23.5 20.5t-18 33q3 0 8.5 -0.5t18 -0.5t19.5 4q-3 0 -8 1.5t-18.5 9t-24 17.5t-19.5 28.5
t-10 41.5q2 -2 5 -4.5t14.5 -6t26.5 -2.5q-3 2 -7.5 5.5t-15 16t-16 26.5t-5 37.5t12.5 48.5q3 -4 9 -11.5t26.5 -26.5t42.5 -33t56 -24.5t69 -8.5q-10 41 11 74t51 42q19 6 38 5t37.5 -9t31.5 -22q2 0 4.5 1t10.5 3.5t15.5 5t17 6.5t16.5 8q-14 -39 -45 -54q2 0 7 0.5
t20.5 4.5t29.5 10q0 -1 -1.5 -3t-6.5 -8.5t-10.5 -12.5t-14 -13.5t-17.5 -14.5z" />
    <glyph glyph-name="icon_a1_wordpress" unicode="&#xe640;" 
d="M511 879q-88 0 -168 -34.5t-138 -92t-92 -137.5t-34 -168q0 -118 57.5 -217.5t157 -157t217.5 -57.5q88 0 168 34t137.5 92t92 138t34.5 168q0 117 -58 216.5t-157.5 157.5t-216.5 58zM510.5 63q-104.5 0 -192.5 51.5t-139.5 139.5t-51.5 193q0 52 13.5 101.5t38.5 92
t60.5 78t77.5 60t91.5 38.5t102.5 14q104 0 192.5 -51.5t140 -140t51.5 -193t-51.5 -192.5t-140 -139.5t-193 -51.5zM514 422l-57 -166l-44 -127q1 -1 2.5 -1.5l3 -1t3.5 -0.5q43 -11 86 -11h15t14.5 1t14.5 2q28 3 56 12l6 2t8 3q-2 4 -6 12.5t-7 15l-3 6.5zM204 580
q-13 -30 -21 -64.5t-8 -66.5q0 -9 0.5 -17t0.5 -16q9 -92 64 -165.5t138 -109.5q3 -1 5 -1.5t4.5 -1.5t4.5 -2l-162 444h-15h-11zM812 589q-11 24 -27 46q-1 2 -2.5 4t-3 4.5t-2.5 4.5q-58 77 -148 112q-58 23 -120 23q-52 0 -100.5 -15.5t-88.5 -43.5t-71 -66
q-17 -20 -31 -45h59l80 4q6 0 9.5 -3.5t4 -8t-2.5 -8.5t-9 -5l-34 -2l109 -326l66 197l-47 128q-5 1 -10 1t-8.5 0.5l-7 1t-4.5 0.5h-1q-8 1 -10.5 7t1 12t10.5 6q50 -4 79 -4h11t12 0.5t12 0.5t11.5 0.5l11 1t9.5 0.5t7 0.5t5 0.5h1q13 1 14 -11t-12 -14q-16 -2 -34 -3
l108 -322l31 100q11 29 16.5 53t5.5 44q0 24 -6.5 43.5t-18.5 38.5q-1 3 -4 7q-25 41 -25 64q0 10 4 19.5t10.5 17t16 12t19.5 4.5h4q9 0 16 -1.5t13 -5t10.5 -8.5t8 -10.5t6.5 -11.5t4.5 -13t2.5 -13l2 -12v-1v-32q0 -51 -23 -108l-68 -196l-38 -114q4 2 9 4q74 36 124 104
t61 151q4 22 4 45q0 74 -31 141z" />
    <glyph glyph-name="icon_a1_wrench" unicode="&#xe641;" 
d="M681 464l207 56l56 208l-21 20l-162 -162l-110 109l163 163l-22 22l-208 -56l-56 -207l23 -22l-105 -105l-21 21l-345 -344l151 -151l344 345l-21 21l105 105z" />
    <glyph glyph-name="icon_a1_youtube" unicode="&#xe642;" 
d="M451 532v-155l144 79zM79 881v-866h866v866h-866zM238 434v41q0 12 0.5 26t1.5 24.5t1.5 19.5t1.5 13v5q6 38 22 54q4 5 8.5 8.5t9.5 6t8.5 4t8.5 2.5t7 1.5t7 0.5h5q34 3 81 4.5t78 1.5h30q114 0 190 -6h4.5t7 -0.5l7.5 -1.5t8.5 -2.5t8.5 -4t9.5 -6t8.5 -8.5
q4 -4 8 -11.5t6.5 -14.5t4 -13.5t2.5 -10.5v-4q6 -44 6 -88v-41q0 -20 -1.5 -42t-2.5 -34l-2 -13q-5 -37 -21 -54q-4 -4 -8.5 -7.5t-9.5 -6t-8.5 -4t-8.5 -2.5l-7.5 -1.5t-7 -1l-4.5 -0.5l-190 -5q-140 1 -184 5l-10.5 1.5t-16.5 3t-15.5 6.5t-16.5 12q-7 8 -12.5 21.5
t-7.5 23.5l-2 9q0 8 -5 89z" />
    <glyph glyph-name="icon_a1_facebook-inv" unicode="&#xe643;" 
d="M535 -64v372h-125v146h125v107q0 91 51 141t136 50q35 0 66.5 -1.5t45.5 -3.5v-130h-77q-42 0 -57 -18t-15 -53v-92h144l-19 -146h-125v-372h-150z" />
    <glyph glyph-name="icon_a1_googleplus-inv" unicode="&#xe644;" 
d="M820 502h-81v83h-48v-83h-82v-46v-2h82v-82h48v82h83v48h-2zM501 408l-26 21q-6 6 -12 14q-7 7 -7 20q0 12 7 22l13 16q12 10 23 21q10 10 18 22q18 25 19 67q0 23 -5 40q-2 3 -3 6.5t-2.5 6.5l-3 6t-3 5.5t-3.5 4.5q-4 7 -8 12.5t-9 10.5q-9 9 -16 13h47l48 28h-155
q-15 0 -31.5 -2t-34.5 -5q-35 -8 -68 -36q-24 -23 -36 -49t-12 -55q0 -47 34 -83q32 -38 94 -39q6 0 12 0.5t13 1.5q-3 -7 -5 -14q-1 -3 -2 -7.5t-1 -9.5q0 -8 2 -15.5t6 -13.5q6 -13 15 -24q-14 0 -31 -2t-37 -5q-21 -3 -41 -10.5t-39 -17.5q-16 -10 -27.5 -22t-18.5 -25
q-13 -27 -13 -48q0 -44 41 -76q40 -34 121 -35q97 1 149 47q50 43 50 100q-1 40 -19 64t-43 45zM405 496q-25 0 -43 15q-10 8 -17.5 17t-13.5 19q-25 46 -25 88q0 32 17 58q21 25 52 25q12 0 22.5 -3.5t20.5 -10.5q18 -14 29 -36q4 -10 8 -19t6.5 -18.5t4.5 -18.5t3 -18.5
t1 -18.5q0 -11 -2 -26q-1 -5 -2.5 -10.5t-4 -10.5t-5.5 -10q-21 -21 -51 -22zM485 209q-29 -24 -84 -25q-61 1 -96 28q-37 26 -37 67q0 21 8 36q1 2 2.5 4.5t3 4.5l3 4l3 4t3.5 3.5t3 3.5q12 9 22 14q11 4 17 6q25 8 49 11q12 2 19.5 2h10.5q10 0 18 -1q43 -30 63 -51
q20 -22 20 -52q0 -36 -28 -59z" />
    <glyph glyph-name="icon_a1_twitter-inv" unicode="&#xe645;" 
d="M702 547q0 -75 -28.5 -136.5t-75 -97t-102 -52.5t-115 -7.5t-109.5 43.5q3 -1 8.5 -1t23 1t34 4.5t38.5 12.5t40 24q-3 0 -8 0.5t-18.5 4t-25 10t-23.5 20.5t-18 33h3t8 -0.5t11.5 -0.5t12 1t11.5 3q-3 0 -8 1.5t-18.5 9t-24 17.5t-19.5 28.5t-10 41.5q2 -2 5 -4.5
t14.5 -6t26.5 -2.5q-3 2 -7.5 5.5t-15 16t-16 26.5t-5 37.5t12.5 48.5q3 -4 9 -11.5t26.5 -26.5t42.5 -33t56 -24.5t69 -8.5q-10 41 11 74t51 42q19 6 38 5t37.5 -9t31.5 -22q2 0 4.5 1t10.5 3.5t15.5 5t17 6.5t16.5 8q-14 -39 -45 -54h2.5t8 1t12.5 2.5t15.5 4.5t18.5 7
q0 -1 -1.5 -3t-6.5 -8.5t-10.5 -12.5t-14 -13.5t-17.5 -14.5z" />
    <glyph glyph-name="icon_a1_wordpress-inv" unicode="&#xe646;" 
d="M511 879q-88 0 -168 -34.5t-138 -92t-92 -137.5t-34 -168q0 -118 57.5 -217.5t157 -157t217.5 -57.5q88 0 168 34t137.5 92t92 138t34.5 168q0 117 -58 216.5t-157.5 157.5t-216.5 58zM510.5 63q-104.5 0 -192.5 51.5t-139.5 139.5t-51.5 193q0 52 13.5 101.5t38.5 92
t60.5 78t77.5 60t91.5 38.5t102.5 14q104 0 192.5 -51.5t140 -140t51.5 -193t-51.5 -192.5t-140 -139.5t-193 -51.5zM514 422l-57 -166l-44 -127q1 -1 2.5 -1.5l3 -1t3.5 -0.5q43 -11 86 -11h15t14.5 1t14.5 2q28 3 56 12l6 2t8 3q-2 4 -6 12.5t-7 15l-3 6.5zM204 580
q-13 -30 -21 -64.5t-8 -66.5q0 -9 0.5 -17t0.5 -16q9 -92 64 -165.5t138 -109.5q3 -1 5 -1.5t4.5 -1.5t4.5 -2l-162 444h-15h-11zM812 589q-11 24 -27 46q-1 2 -2.5 4t-3 4.5t-2.5 4.5q-58 77 -148 112q-58 23 -120 23q-52 0 -100.5 -15.5t-88.5 -43.5t-71 -66
q-17 -20 -31 -45h59l80 4q6 0 9.5 -3.5t4 -8t-2.5 -8.5t-9 -5l-34 -2l109 -326l66 197l-47 128q-5 1 -10 1t-8.5 0.5l-7 1t-4.5 0.5h-1q-8 1 -10.5 7t1 12t10.5 6q50 -4 79 -4h11t12 0.5t12 0.5t11.5 0.5l11 1t9.5 0.5t7 0.5t5 0.5h1q13 1 14 -11t-12 -14q-16 -2 -34 -3
l108 -322l31 100q11 29 16.5 53t5.5 44q0 24 -6.5 43.5t-18.5 38.5q-1 3 -4 7q-25 41 -25 64q0 10 4 19.5t10.5 17t16 12t19.5 4.5h4q9 0 16 -1.5t13 -5t10.5 -8.5t8 -10.5t6.5 -11.5t4.5 -13t2.5 -13l2 -12v-1v-32q0 -51 -23 -108l-68 -196l-38 -114q4 2 9 4q74 36 124 104
t61 151q4 22 4 45q0 74 -31 141z" />
    <glyph glyph-name="icon_a1_youtube-inv" unicode="&#xe647;" 
d="M781 559v1t-0.5 3.5t-1.5 5.5t-2 7t-2 7.5t-3 8t-3.5 8.5t-4 7.5t-5.5 5.5q-4 5 -8.5 8.5t-9.5 6t-8.5 4t-9 2.5t-7.5 1.5t-6.5 1t-5.5 0.5q-34 2 -82 3.5t-79 1.5h-31q-115 0 -192 -5q-1 0 -5.5 -0.5t-6.5 -1t-7.5 -1.5t-9 -2.5t-8.5 -4t-9.5 -6t-8.5 -8.5
q-7 -7 -12.5 -20.5t-7.5 -23.5l-2 -10q-5 -45 -5 -90v-42v-19t0.5 -18.5t1 -16.5t1.5 -14.5t1 -11t0.5 -7l0.5 -2.5q5 -39 22 -55q7 -8 17 -13t16 -6.5t16.5 -3l10.5 -1.5q13 -1 36.5 -2t48.5 -1.5t48.5 -1t38.5 -0.5l15 -1q115 1 192 6q1 0 4.5 0.5t5.5 1t6.5 1t7.5 1.5
t7.5 3t8 4t7.5 5.5t8 7.5q3 3 6.5 8t5.5 10t3.5 10.5t3 10t2 8t1 6l0.5 2.5q5 44 5 89v42q0 45 -5 90zM454 370v156l146 -76z" />
    <glyph glyph-name="icon_a1_refresh" unicode="&#xe648;" 
d="M947 452l-147 150l-146 -150h87v-4q0 -62 -30.5 -115t-83.5 -84t-116 -31q-48 0 -91 19t-75 53l-79 -81q48 -49 111.5 -76.5t133.5 -27.5q94 0 172.5 46t124.5 125t46 172v2.5v1.5h93zM282 442v6q0 95 67 162.5t162 67.5q100 0 168 -73l79 81q-47 49 -111 77t-136 28
q-93 0 -171.5 -46t-124.5 -125t-46 -172v-4v-2h-92l147 -150l146 150h-88z" />
    <glyph glyph-name="icon_a1_share" unicode="&#xe649;" 
d="M915 587h-248v23l-310 -155v-39l310 -138v31h248v-248h-248v140l-310 138v-30h-248v247h248v-22l310 155v146h248v-248z" />
    <glyph glyph-name="icon_a1_pencil" unicode="&#xe64a;" 
d="M395 122l-209 209l460 460l209 -209zM81 17l293 84l-209 209zM941 747l-130 130q-17 17 -40.5 16t-41.5 -18l-62 -63l209 -209l63 63q17 17 17.5 40.5t-15.5 40.5z" />
    <glyph glyph-name="icon_a1_percentage" unicode="&#xe64b;" 
d="M446 548q0 9 -2.5 16.5t-8.5 13.5q-11 12 -29.5 12t-29.5 -12t-11 -30q0 -19 11 -31q6 -6 13.5 -9t16.5 -3q18 0 29 12q11 13 11 31zM616.5 392q-18.5 0 -29.5 -12q-5 -6 -8 -13.5t-3 -16.5q0 -19 11 -31q2 -2 4.5 -4t5.5 -3.5t6 -2.5t6.5 -1.5t7.5 -0.5q18 0 29 12
q3 3 5 6.5t3.5 7.5t2 8t0.5 9q0 18 -11 30t-29.5 12zM904 449l38 68l-57 53l15 77l-71 33l-9 77l-78 9l-33 71l-77 -15l-53 58l-68 -39l-68 39l-53 -58l-77 15l-33 -71l-78 -9l-9 -77l-71 -33l15 -77l-57 -53l38 -68l-38 -69l57 -53l-15 -76l71 -33l9 -78l78 -9l33 -71
l77 15l53 -57l68 38l68 -38l53 57l77 -15l33 71l78 9l9 78l71 33l-15 76l57 53zM336 489q-22 24 -22 60q0 33 22 57q27 30 70 30q42 0 69 -30q22 -24 22 -58q0 -18 -5.5 -32.5t-16.5 -26.5q-26 -30 -69 -30q-44 0 -70 30zM424 269h-47l221 360h47zM686 291q-26 -30 -69 -30
q-44 0 -70 30q-6 6 -10 13t-7 14.5t-4 15.5t-1 17q0 33 22 57q27 30 70 30t69 -30q11 -12 16.5 -26.5t5.5 -31.5t-5.5 -32t-16.5 -27z" />
    <glyph glyph-name="icon_a1_vorteilfive" unicode="&#xe64c;" 
d="M268 451l30 429h462v-209h-125v90h-213l-17 -225q29 17 60 25t63 8q106 0 178 -56q97 -76 97 -219q0 -126 -81 -202q-80 -76 -212 -76q-153 0 -226 97q-42 56 -63 136l123 38q15 -57 43 -93q46 -58 124 -58q71 0 116 49q41 44 41 112q0 66 -41 108q-42 44 -113 44
q-51 0 -95 -22q-22 -11 -54 -37z" />
    <glyph glyph-name="icon_a1_unlimited" unicode="&#xe64d;" horiz-adv-x="1552" 
d="M358.5 113q147.5 0 250.5 97l82 79l-78 80l-87 -77q-67 -63 -167.5 -63t-168.5 63q-22 21 -37 46t-23 53t-8 57q0 92 68 156q68 63 168.5 63t167.5 -63l419 -394q50 -47 114.5 -72t135.5 -25q147 0 251 97q104 98 105 237q0 68 -27 129.5t-78 109.5q-50 47 -114.5 72
t-135.5 25q-48 0 -92.5 -11t-85 -33t-73.5 -53l-92 -89l85 -80l89 87q68 63 168.5 63t167.5 -63q69 -65 69 -156q0 -44 -18 -84.5t-51 -71.5q-67 -63 -167.5 -63t-168.5 63l-418 394q-51 47 -115.5 72t-135.5 25t-135.5 -25t-114.5 -72q-51 -48 -78 -109t-27 -128.5t27 -129
t78 -109.5q103 -97 250.5 -97z" />
    <glyph glyph-name="icon_a1_tooltipp" unicode="&#xe64e;" 
d="M66 894v-892h892v892h-892zM549 178h-93v99h93v-99zM633 461q-10 -11 -24 -19t-30.5 -14t-36.5 -9v-82h-80v145q51 0 76 11q47 22 47 73q0 17 -5.5 31t-16.5 24q-7 7 -15.5 12t-18 7.5t-20.5 2.5q-43 0 -64 -37q-3 -4 -5 -10t-4 -13t-3.5 -15t-2.5 -18h-80q3 37 9 58
q14 50 51 79q41 32 101 32q71 0 116 -43t45 -114q0 -62 -39 -101z" />
    <glyph glyph-name="icon_a1_layerlink" unicode="&#xe64f;" 
d="M141 745h-74v-742h742v742h-668zM735 77h-594v594h594v-594zM883 893h-594v-74h594v-594h74v668h-74z" />
  </font>
</defs>
</svg>
